Loading...
Error

Великий уравнитель / The Equalizer (Антуан Фукуа) [2014 г., боевик, триллер, криминал, BDRip] Dub (Rus,Ukr) + Original + Sub (Rus,Eng) HQ Underverse

Статистика раздачи
Размер:  2,17 GB   |    Зарегистрирован:  1 год 11 месяцев   |    Скачан:  130 раз

Полного источника не было: 1 день 3 часа

Сидов:  0  |  0 KB/s  ]   Личеров:  0  |  0 KB/s  ]

* - сиды/пиры с внешних источников

   
 
Автор Сообщение

HQ Underverse 

19-Дек-2014 14:15

Великий уравнитель / The Equalizer


Год выпуска: 2014
Жанр: боевик, триллер, криминал
Страна: США
Режиссер: Антуан Фукуа
В ролях: Дензел Вашингтон, Мартон Чокаш, Хлоя Грейс Морец, Дэвид Харбор, Хейли Беннетт, Билл Пуллман, Мелисса Лео, Дэвид Мюнье, Джонни Скуртис, Алекс Видов
Сюжет фильма:
Роберт МакКолл — бывший спецназовец. После увольнения со службы он собирается начать нормальную мирную жизнь, дав себе обещание, больше никогда не брать в руки оружия. Но в один прекрасный момент он встречает молодую девушку, зарабатывающую на жизнь проституцией, которую на его глазах избивают бандиты и увозят в неизвестном направлении. Тогда он решает отыскать ее, после чего вступает в неравную схватку с русской мафией и продажными агентами ЦРУ. Ради справедливости он готов нарушить собственное обещание и применить оружие против людей, которые просто не заслуживают жить в этом мире…

  • Мировая премьера: 7 сентября 2014
  • Российская премьера: 25 сентября 2014, «WDSSPR»

|
Качество видео: BDRip

Продолжительность: 02:12:02
Формат: avi
Видео: XviD, 720x304, 1895 kbps
Аудио #1: русский, дублированный [лицензия], AC3 5.1, 448 kbps
Аудио #2: английский, оригинал, AC3 5.1, 448 kbps (отдельным файлом: здесь)
Аудио #3: украинский, дублированный [лицензия], AC3 5.1, 448 kbps (отдельным файлом: здесь)
Субтитры #1: внешние, SRT, русский
Субтитры #2: внешние, SRT, английский
Субтитры #3: внешние, SRT, русский (FORCED)

Код:

General
Complete name                    : Y:\Великий уравнитель\The.Equalizer.2014.BDRip.XviD.AC3.Rus.D.HQ.Underverse.avi
Format                           : AVI
Format/Info                      : Audio Video Interleave
Format profile                   : OpenDML
File size                        : 2.17 GiB
Duration                         : 2h 12mn
Overall bit rate                 : 2 356 Kbps
Writing application              : VirtualDubMod 1.5.10.3 | www.virtualdub-fr.org || (build 2550/release)
Writing library                  : VirtualDubMod build 2550/release

Video
ID                               : 0
Format                           : MPEG-4 Visual
Format profile                   : Streaming Video@L1
Format settings, BVOP            : Yes
Format settings, QPel            : No
Format settings, GMC             : No warppoints
Format settings, Matrix          : Custom
Codec ID                         : XVID
Codec ID/Hint                    : XviD
Duration                         : 2h 12mn
Bit rate                         : 1 896 Kbps
Width                            : 720 pixels
Height                           : 304 pixels
Display aspect ratio             : 2.35
Frame rate                       : 23.976 fps
Resolution                       : 24 bits
Colorimetry                      : 4:2:0
Scan type                        : Progressive
Bits/(Pixel*Frame)               : 0.361
Stream size                      : 1.75 GiB (80%)
Writing library                  : XviD 64

Audio
ID                               : 1
Format                           : AC-3
Format/Info                      : Audio Coding 3
Codec ID                         : 2000
Duration                         : 2h 12mn
Bit rate mode                    : Constant
Bit rate                         : 448 Kbps
Channel(s)                       : 6 channels
Channel positions                : Front: L C R, Surround: L R, LFE
Sampling rate                    : 48.0 KHz
Stream size                      : 423 MiB (19%)
Alignment                        : Split accross interleaves
Interleave, duration             : 42 ms (1.00 video frame)
Interleave, preload duration     : 500 ms

General
Complete name                    : Y:\Великий уравнитель\The.Equalizer.2014.BDRip.XviD.AC3.Rus.D.HQ.Underverse.UKR.ac3
Format                           : AC-3
Format/Info                      : Audio Coding 3
File size                        : 423 MiB
Duration                         : 2h 12mn
Overall bit rate                 : 448 Kbps

Audio
Format                           : AC-3
Format/Info                      : Audio Coding 3
Duration                         : 2h 12mn
Bit rate mode                    : Constant
Bit rate                         : 448 Kbps
Channel(s)                       : 6 channels
Channel positions                : Front: L C R, Surround: L R, LFE
Sampling rate                    : 48.0 KHz
Stream size                      : 423 MiB (100%)

General
Complete name                    : Y:\Великий уравнитель\The.Equalizer.2014.BDRip.XviD.AC3.Rus.D.HQ.Underverse.ENG.ac3
Format                           : AC-3
Format/Info                      : Audio Coding 3
File size                        : 423 MiB
Duration                         : 2h 12mn
Overall bit rate                 : 448 Kbps

Audio
Format                           : AC-3
Format/Info                      : Audio Coding 3
Duration                         : 2h 12mn
Bit rate mode                    : Constant
Bit rate                         : 448 Kbps
Channel(s)                       : 6 channels
Channel positions                : Front: L C R, Surround: L R, LFE
Sampling rate                    : 48.0 KHz
Stream size                      : 423 MiB (100%)

Релиз группы:

picpicpic
Для увеличения картинки щелкните мышкой по превью

Этот торрент недоступен для скачивания без регистрации, однако доступен по публичной magnet-ссылке (источники с публичных трекеров). Перед использованием ссылки прочтите, пожалуйста Пользовательское соглашение, а также как можно дольше оставайтесь на раздаче! Для того, чтобы скачать сам торрент-файл (который видит больше источников), а также для того, чтобы поблагодарить релизера, вам необходимо зарегистрироваться. Если регистрироваться лень - вы можете также попробовать скачать релиз по нашим партнерским ссылкам ниже.

[underverse.su].t47545.torrent
Трекер: Зарегистрирован   [ 19.12.2014 14:15 ]  

Статус: проверено (by HQ Underverse at 19.12.2014 14:15)
Поблагодарили: 3 человека
Тип торрента: публичный - доступные источники с открытых трекеров: 
Размер: 2,17 GB (занимает 1/2 DVDR, для записи нужно 1 болванка DVDR/RW)
 
 
Похожие темы
Форум Тема Автор Торрент Отв. Посл. сооб.
Зарубежное кино [DVDRip, Low-Res HDRip, и т.д.] Великий уравнитель / The Equalizer (Антуан Фукуа / Antoine Fuqua) [2014 г., боевик, триллер, криминал, HDRip] AVO (Есарев) 90ytr90
2 | 0

0 | 3078

18

14.12.2014 14:28

Зарубежное кино [DVDRip, Low-Res HDRip, и т.д.] Великий уравнитель / The Equalizer (Антуан Фукуа / Antoine Fuqua) [2014 г., боевик, триллер, криминал, HDRip] AVO (Есарев) 90ytr90
15 | 0

0 | 3064

12

14.12.2014 14:33

T Зарубежное кино [DVDRip, Low-Res HDRip, и т.д.] Великий уравнитель / The Equalizer (Антуан Фукуа) [2014 г., боевик, триллер, криминал, HDRip] Dub [iTunes] Паукан
1 | 0

0 | 3155

13

16.12.2014 14:59

Зарубежное кино [DVDRip, Low-Res HDRip, и т.д.] Великий уравнитель / The Equalizer (Антуан Фукуа / Antoine Fuqua) [2014 г., боевик, триллер, криминал, ВDRip] 2xAVO (Есарев) + Original (Eng) 90ytr90
5 | 0

0 | 3197

17

17.12.2014 17:51

Зарубежное кино [DVDRip, Low-Res HDRip, и т.д.] Великий уравнитель / The Equalizer (Антуан Фукуа / Antoine Fuqua) [2014 г., боевик, триллер, криминал, HDRip] Dub 90ytr90
18 | 0

1 | 524

42

08.01.2015 13:27

Зарубежное кино [DVDRip, Low-Res HDRip, и т.д.] Великий уравнитель / The Equalizer (Антуан Фукуа / Antoine Fuqua) [2014 г., боевик, триллер, криминал, BDRip-AVC] Dub + Original (Eng) + Ukr + Subs 90ytr90
3 | 0

0 | 394

3

01.01.2015 14:46

Зарубежное кино [DVDRip, Low-Res HDRip, и т.д.] Великий уравнитель / The Equalizer (Антуан Фукуа / Antoine Fuqua) [2014 г., боевик, триллер, криминал, BDRip] AVO (Матвеев) + Sub (Rus) 90ytr90
3 | 0

0 | 403

7

09.01.2015 07:04

# Зарубежное кино [DVDRip, Low-Res HDRip, и т.д.] Великий уравнитель / The Equalizer (Антуан Фукуа / Antoine Fuqua) [2014 г., боевик, триллер, криминал, HDRip] AVO (Гаврилов) 90ytr90
4 | 0

0 | 429

10

26.01.2015 12:19

Зарубежное кино [HDDVDRip / BDRip / WEB-DL / HDTV 1080/720р] Великий уравнитель / The Equalizer (Антуан Фукуа / Antoine Fuqua) [2014 г., боевик, триллер, криминал, BDRip 720p] Dub + Original (Eng) + Subs 90ytr90
118 | 3

0 | 432

17

01.01.2015 13:39

Зарубежное кино [HDDVDRip / BDRip / WEB-DL / HDTV 1080/720р] Великий уравнитель / The Equalizer (Антуан Фукуа / Antoine Fuqua) [2014 г., боевик, триллер, криминал, BDRip 720p] Dub + Ukr + Original (Eng) + Subs 90ytr90
69 | 0

0 | 341

5

01.01.2015 13:54

columb 

20-Дек-2014 16:44

поддайте жару )

Яндекс.Метрика powered by Sphinx


В Н И М А Н И Е
Сайт не распространяет и не хранит электронные версии произведений, а лишь бесплатно и без коммерческой выгоды (не требуя взамен платы,
SMS и т.д.) предоставляет доступ к создаваемому пользователями каталогу ссылок на торрент-файлы, которые содержат только списки хеш-сумм.
Убедительная просьба с жалобами обращаться напрямую к пользователю, разместившему торрент файл.

Вверх