Loading...
Error

Открытые окна / Open Windows (Начо Вигалондо) [2014 г., Триллер, HDRip] Dub (RUS, Лицензия)

Статистика раздачи
Размер:  1,46 GB   |    Зарегистрирован:  1 год 11 месяцев   |    Скачан:  17 раз

Полного источника не было: 1 год 6 месяцев

Сидов:  0  |  0 KB/s  ]   Личеров:  0  |  0 KB/s  ]

* - сиды/пиры с внешних источников

   
 
Автор Сообщение

Ведьмочка Пол:Жен

18-Дек-2014 11:28

Открытые окна / Open Windows
«Одна звезда. Один фанат. Один маньяк»


Страна: Испания , США
Год выпуска: 2014
Жанр: Триллер
Продолжительность: 01:40:36
Режиссёр: Начо Вигалондо
В ролях: Элайджа Вуд, Саша Грэй, Нил Мэскелл, Начо Вигалондо, Иван Гонсалес, Рэйчел Ариефф, Треванте Родс, Хайме Олиас, Майк МакКатчен, Улисс Лопес
Сюжет фильма:
Ник — фанат актрисы Джилл Годдард и редактор ее неофициального сайта. Он выигрывает конкурс, главный приз в котором — ужин со звездой после презентации ее нового фильма. Во время онлайн репортажа с презентации, которая транслируется через сайт Ника, раздается звонок и человек, представившийся Кордом, объявляет ему, что ужин отменен. Ник даже не подозревает, что стал пешкой в игре, цель которой — убийство Джилл…

Озвучивание:
  • Дублированный, Русский [Лицензия]

Качество видео: HDRip
Формат: AVI

Видео: XviD, 720x400 (16:9), 23.976 fps, 1623 Кбит/сек
Аудио: AC-3, 448 Кбит/сек, 6 Каналов, 48.0 КГц



Общее
Полное имя : \Otkytye.Okna.2014.D.HDRip.avi
Формат : AVI
Формат/Информация : Audio Video Interleave
Размер файла : 1,46 Гбайт
Продолжительность : 1 ч. 40 м.
Общий поток : 2080 Кбит/сек
Программа кодирования : VirtualDubMod 1.5.10.2 (build 2540/release)
Библиотека кодирования : VirtualDubMod build 2540/release

Видео
Идентификатор : 0
Формат : MPEG-4 Visual
Профиль формата : Advanced Simple@L5
Параметр BVOP формата : 2
Параметр QPel формата : Нет
Параметр GMC формата : Без точки перехода
Параметр матрицы формата : Default (MPEG)
Идентификатор кодека : XVID
Идентификатор кодека/Подсказка : XviD
Продолжительность : 1 ч. 40 м.
Битрейт : 1623 Кбит/сек
Ширина : 720 пикселей
Высота : 400 пикселей
Соотношение сторон : 16:9
Частота кадров : 23,976 кадра/сек
Цветовое пространство : YUV
Субдискретизация насыщенности : 4:2:0
Битовая глубина : 8 бит
Тип развёртки : Прогрессивная
Метод сжатия : С потерями
Бит/(Пиксели*Кадры) : 0.235
Размер потока : 1,14 Гбайт (78%)
Библиотека кодирования : XviD 1.2.1 (UTC 2008-12-04)

Аудио
Идентификатор : 1
Формат : AC-3
Формат/Информация : Audio Coding 3
Расширение режима : CM (complete main)
Параметр Endianness формата : Big
Идентификатор кодека : 2000
Продолжительность : 1 ч. 40 м.
Вид битрейта : Постоянный
Битрейт : 448 Кбит/сек
Каналы : 6 каналов
Расположение каналов : Front: L C R, Side: L R, LFE
Частота : 48,0 КГц
Битовая глубина : 16 бит
Метод сжатия : С потерями
Размер потока : 322 Мбайт (22%)
Выравнивание : Разделение по промежуткам
Продолжительность промежутка : 42 мс. (1,00 видеокадр)
Время предзагрузки промежутка : 500 мс.


picpicpicpicpic
Для увеличения картинки щелкните мышкой по превью

Этот торрент недоступен для скачивания без регистрации, однако доступен по публичной magnet-ссылке (источники с публичных трекеров). Перед использованием ссылки прочтите, пожалуйста Пользовательское соглашение, а также как можно дольше оставайтесь на раздаче! Для того, чтобы скачать сам торрент-файл (который видит больше источников), а также для того, чтобы поблагодарить релизера, вам необходимо зарегистрироваться. Если регистрироваться лень - вы можете также попробовать скачать релиз по нашим партнерским ссылкам ниже.

[underverse.su].t47501.torrent
Трекер: Зарегистрирован   [ 18.12.2014 11:28 ]  

Статус: проверено (by Ведьмочка at 18.12.2014 11:39)
Поблагодарили: 1 человек
Тип торрента: публичный - доступные источники с открытых трекеров: 
Размер: 1,46 GB (занимает 0,33 DVDR, для записи нужно 1 болванка DVDR/RW)
 
 
Похожие темы
Форум Тема Автор Торрент Отв. Посл. сооб.
T Зарубежное кино [DVDRip, Low-Res HDRip, и т.д.] Открытые окна / Open Windows (Начо Вигалондо) [2014 г., Триллер, HDRip] Dub (RUS, Чистый звук) Ведьмочка
10 | 1

0 | 793

22

04.12.2014 05:19

T Зарубежное кино [HDDVDRip / BDRip / WEB-DL / HDTV 1080/720р] Открытые окна / Open Windows (Начо Вигалондо) [2014 г., Триллер, BDRip 720p] Dub (RUS, Чистый звук) + Original (ENG) Ведьмочка
43 | 3

0 | 526

7

04.12.2014 04:59

T Зарубежное кино [HDDVDRip / BDRip / WEB-DL / HDTV 1080/720р] Открытые окна / Open Windows (Начо Вигалондо) [2014 г., Триллер, BDRip 720p] Dub (RUS, Чистый звук) Ведьмочка
0 | 0

0 | 531

12

04.12.2014 05:08

Vyikately Пол:Муж

05-Янв-2015 12:57

На пятом скрине тема раскрыта!!!! :Yahoo!: :Yahoo!: :Yahoo!:

Ведьмочка Пол:Жен

05-Янв-2015 16:01

Vyikately писал(а):

На пятом скрине тема раскрыта!!!! :Yahoo!: :Yahoo!: :Yahoo!:
Надоело в проне сниматься, полезла в обычные фильмы! :)

Яндекс.Метрика powered by Sphinx


В Н И М А Н И Е
Сайт не распространяет и не хранит электронные версии произведений, а лишь бесплатно и без коммерческой выгоды (не требуя взамен платы,
SMS и т.д.) предоставляет доступ к создаваемому пользователями каталогу ссылок на торрент-файлы, которые содержат только списки хеш-сумм.
Убедительная просьба с жалобами обращаться напрямую к пользователю, разместившему торрент файл.

Вверх