Loading...
Error

Всеядные / Omnivoros (Оскар Рохо) [2013 г., ужасы, триллер, BDRip-AVC] VO [xixidok] + Original + Sub (Eng)

Статистика раздачи
Размер:  1,55 GB   |    Зарегистрирован:  1 год 11 месяцев   |    Скачан:  5 раз

Полного источника не было: 1 год 10 месяцев

Сидов:  0  |  0 KB/s  ]   Личеров:  0  |  0 KB/s  ]

* - сиды/пиры с внешних источников

   
 
Автор Сообщение

Паукан Пол:Муж

16-Дек-2014 17:29

Всеядные / Omnivoros


Название: Всеядные
Оригинальное название: Omnivoros
Год выхода: 2014
Жанр: Ужасы, триллер
Режиссер-постановщик: Оскар Рохо
Актеры: Анхель, Фернандо Альбису, Карина Бьёрне, Марио де ла Роса, Марта Флич, Дарио Фриаш, Исмаэль Фричи, Сара Гомез, Эстер Лара, Альберто Джо Ли

Описание:
Герой фильма — журналист Маркос Вела, пишущий для престижных гастрономических журналов. Взявшись за написание статьи про подпольные рестораны он, неожиданно для себя, открывает тайну некоторых из них. Журналист оказывается втянут в историю с богатыми людьми, платящими безумные деньги за возможность попробовать изысканные блюда, приготовленные из человеческой плоти…



Страна: Испания
Студия: Brutal Box
Продолжительность: 01:25:04
Перевод: Любительский одноголосый (Хихикающий доктор)

Кодек: MPEG-4 AVC
Качество: BDRip-AVC
Видео: 1724 Кбит/с, 1024x576
Звук: Русский, испанский (AC3, 6 ch, 448 Кбит/с)
Субтитры: Английские
Рип от StarbirS
Релиз группы NovaLan

Аудио#1: Russian: 48 kHz, AC3, 3/2 (L,C,R,l,r) + LFE ch, ~448.00 kbps avg - Любительский одноголосый (Хихикающий доктор)
Аудио#2: Spanish: 48 kHz, AC3, 3/2 (L,C,R,l,r) + LFE ch, ~448.00 kbps avg - Оригинал

Озвучка выполнена по субтитрам KateBCN. За чистый голос спасибо самому Доктору.
Работа со звуком Sergei7721

x264 [info]: frame I:778 Avg QP:15.42 size: 73266
x264 [info]: frame P:28522 Avg QP:18.95 size: 19684
x264 [info]: frame B:92543 Avg QP:20.65 size: 5139
Формат : Matroska
Версия формата : Version 4 / Version 2
Размер файла : 1,55 Гбайт
Продолжительность : 1 ч. 25 м.
Общий поток : 2610 Кбит/сек
Название фильма : Omnivoros.2013.x264.BDRip.(AVC).Novalan
Дата кодирования : UTC 2014-12-16 08:38:40
Программа кодирования : mkvmerge v7.3.0 ('Nouages') 64bit built on Oct 22 2014 18:53:34
Библиотека кодирования : libebml v1.3.0 + libmatroska v1.4.1
DURATION : 01:15:57.427000000
NUMBER_OF_FRAMES : 553
NUMBER_OF_BYTES : 17635
_STATISTICS_WRITING_APP : mkvmerge v7.3.0 ('Nouages') 64bit built on Oct 22 2014 18:53:34
_STATISTICS_WRITING_DATE_UTC : 2014-12-16 08:38:40
_STATISTICS_TAGS : BPS DURATION NUMBER_OF_FRAMES NUMBER_OF_BYTES

Видео
Идентификатор : 1
Формат : AVC
Формат/Информация : Advanced Video Codec
Профиль формата : High@L4.1
Параметр CABAC формата : Да
Параметр ReFrames формата : 9 кадров
Идентификатор кодека : V_MPEG4/ISO/AVC
Продолжительность : 1 ч. 25 м.
Битрейт : 1724 Кбит/сек
Ширина : 1024 пикселя
Высота : 576 пикселей
Соотношение сторон : 16:9
Режим частоты кадров : Постоянный
Частота кадров : 23,976 кадра/сек
Цветовое пространство : YUV
Субдискретизация насыщенности : 4:2:0
Битовая глубина : 8 бит
Тип развёртки : Прогрессивная
Бит/(Пиксели*Кадры) : 0.122
Размер потока : 1012 Мбайт (64%)
Заголовок : Omnivoros.2013.x264.BDRip.(AVC).by.StarbirS
Библиотека кодирования : x264 core 142 r2431 ac76440
Настройки программы : cabac=1 / ref=9 / deblock=1:-2:-2 / analyse=0x3:0x113 / me=umh / subme=11 / psy=1 / psy_rd=1.00:0.20 / mixed_ref=1 / me_range=48 / chroma_me=1 / trellis=2 / 8x8dct=1 / cqm=0 / deadzone=21,11 / fast_pskip=0 / chroma_qp_offset=-3 / threads=12 / lookahead_threads=4 / sliced_threads=0 / nr=0 / decimate=0 / interlaced=0 / bluray_compat=0 / constrained_intra=0 / bframes=8 / b_pyramid=2 / b_adapt=2 / b_bias=0 / direct=3 / weightb=1 / open_gop=0 / weightp=2 / keyint=240 / keyint_min=23 / scenecut=40 / intra_refresh=0 / rc=2pass / mbtree=0 / bitrate=1724 / ratetol=1.0 / qcomp=0.70 / qpmin=0 / qpmax=69 / qpstep=4 / cplxblur=20.0 / qblur=0.5 / ip_ratio=1.40 / pb_ratio=1.30 / aq=2:0.90
Язык : English
Default : Да
Forced : Нет
DURATION : 01:24:41.877000000
NUMBER_OF_FRAMES : 121843
NUMBER_OF_BYTES : 1093973548
_STATISTICS_WRITING_APP : mkvmerge v7.3.0 ('Nouages') 64bit built on Oct 22 2014 18:53:34
_STATISTICS_WRITING_DATE_UTC : 2014-12-16 08:38:40
_STATISTICS_TAGS : BPS DURATION NUMBER_OF_FRAMES NUMBER_OF_BYTES

Аудио #1
Идентификатор : 2
Формат : AC-3
Формат/Информация : Audio Coding 3
Расширение режима : CM (complete main)
Параметр Endianness формата : Big
Идентификатор кодека : A_AC3
Продолжительность : 1 ч. 25 м.
Вид битрейта : Постоянный
Битрейт : 448 Кбит/сек
Каналы : 6 каналов
Расположение каналов : Front: L C R, Side: L R, LFE
Частота : 48,0 КГц
Битовая глубина : 16 бит
Метод сжатия : С потерями
Размер потока : 273 Мбайт (17%)
Заголовок : Любительский одноголосый (Хихикающий доктор)
Язык : Russian
Default : Да
Forced : Нет

Аудио #2
Идентификатор : 3
Формат : AC-3
Формат/Информация : Audio Coding 3
Расширение режима : CM (complete main)
Параметр Endianness формата : Big
Идентификатор кодека : A_AC3
Продолжительность : 1 ч. 25 м.
Вид битрейта : Постоянный
Битрейт : 448 Кбит/сек
Каналы : 6 каналов
Расположение каналов : Front: L C R, Side: L R, LFE
Частота : 48,0 КГц
Битовая глубина : 16 бит
Метод сжатия : С потерями
Размер потока : 273 Мбайт (17%)
Заголовок : Оригинал
Язык : Spanish
Default : Нет
Forced : Нет

Текст
Идентификатор : 4
Формат : UTF-8
Идентификатор кодека : S_TEXT/UTF8
Идентификатор кодека/Информация : UTF-8 Plain Text
Язык : English
Default : Да
Forced : Нет

Меню
00:00:00.000 : en:00:00:00.000
00:06:48.575 : en:00:06:48.575
00:13:00.905 : en:00:13:00.905
00:21:52.811 : en:00:21:52.811
00:31:14.581 : en:00:31:14.581
00:36:18.510 : en:00:36:18.510
00:43:16.511 : en:00:43:16.511
00:49:43.814 : en:00:49:43.814
00:54:34.062 : en:00:54:34.062
01:02:28.662 : en:01:02:28.662
01:07:50.858 : en:01:07:50.858
01:10:44.240 : en:01:10:44.240
01:19:14.208 : en:01:19:14.208
pic pic pic
Для увеличения картинки щелкните мышкой по превью

Этот торрент недоступен для скачивания без регистрации, однако доступен по публичной magnet-ссылке (источники с публичных трекеров). Перед использованием ссылки прочтите, пожалуйста Пользовательское соглашение, а также как можно дольше оставайтесь на раздаче! Для того, чтобы скачать сам торрент-файл (который видит больше источников), а также для того, чтобы поблагодарить релизера, вам необходимо зарегистрироваться. Если регистрироваться лень - вы можете также попробовать скачать релиз по нашим партнерским ссылкам ниже.

[underverse.su].t47465.torrent
Трекер: Зарегистрирован   [ 16.12.2014 17:29 ]  

Статус: проверено (by Паукан at 16.12.2014 17:30)
Поблагодарили: пока никто не поблагодарил...
Тип торрента: публичный - доступные источники с открытых трекеров: 
Размер: 1,55 GB (занимает 0,35 DVDR, для записи нужно 1 болванка DVDR/RW)
 
 
Похожие темы
Форум Тема Автор Торрент Отв. Посл. сооб.
T Зарубежное кино [DVDRip, Low-Res HDRip, и т.д.] Всеядные / Omnivoros (Оскар Рожо) [2013 г., ужасы, триллер, WEB-DLRip] VO (ХихиДок) + Hardsub (Eng) 90ytr90
10 | 1

1 | 1347

10

20.10.2013 10:46

Зарубежное кино [DVDRip, Low-Res HDRip, и т.д.] Всеядные / Omnivoros (Оскар Рохо) [2014 г., Ужасы, Триллер, HDRip] VO (RUS, ХиХиДок) Ведьмочка
8 | 1

0 | 307

8

24.09.2014 13:34

T Зарубежное кино [HDDVDRip / BDRip / WEB-DL / HDTV 1080/720р] Всеядные / Omnivoros (Оскар Рожо) [2013 г., ужасы, триллер, WEB-DL 720p] VO [ХихиДок] Чертёнок
20 | 0

0 | 1435

20

19.10.2013 10:29


Яндекс.Метрика powered by Sphinx


В Н И М А Н И Е
Сайт не распространяет и не хранит электронные версии произведений, а лишь бесплатно и без коммерческой выгоды (не требуя взамен платы,
SMS и т.д.) предоставляет доступ к создаваемому пользователями каталогу ссылок на торрент-файлы, которые содержат только списки хеш-сумм.
Убедительная просьба с жалобами обращаться напрямую к пользователю, разместившему торрент файл.

Вверх