Loading...
Error

10 мгновений судьбы / The Turning (Марика Уолш, Саймон Стоун, ...) [2013 г., драма, SATRip] MVO

Статистика раздачи
Размер:  1,46 GB   |    Зарегистрирован:  1 год 11 месяцев   |    Скачан:  6 раз

Полного источника не было: 1 год 9 месяцев

Сидов:  0  |  0 KB/s  ]   Личеров:  0  |  0 KB/s  ]

* - сиды/пиры с внешних источников

   
 
Автор Сообщение

Паукан Пол:Муж

16-Дек-2014 17:10

10 мгновений судьбы / The Turning


Название: 10 мгновений судьбы
Оригинальное название: The Turning
Год выхода: 2013
Жанр: Драма
Режиссер-постановщик: Марика Уолш, Саймон Стоун, Дэвид Уэнем, Клэр МакКарти, Роберт Коннолли, Тони Эрс, Стивен Пейдж, Миа Васиковска, Джастин Курцел, Уорвик Торнтон
В фильме снимались: Кейт Бланшетт, Роуз Берн, Хьюго Уивинг, Каллан Малвей, Миранда Отто, Ричард Роксбург, Харрисон Гилбертсон, Мэтт Нейбл, Майлс Поллард, Дэн Уилли, Сьюзи Портер, Мирра Фолкс, Оскар Реддинг, Финн Вудлок

Описание: Фильм представляет собой 10 отдельных короткометражных фильмов, поставленных разными режиссерами. Сюжеты этих историй, на первый взгляд, не связаны между собой, и каждый из эпизодов создан в своем уникальном стиле. Хотя есть многое, что их объединяет…



Страна: Австралия
Студия: Arenamedia, Screen Australia
Продолжительность: 01:42:13
Перевод: Профессиональный многоголосый

Кодек: XviD
Качество: SATRip
Видео: 1653 Кбит/с, 720x400, 25.000 кадр/с
Звук: Русский (АС3, 6 ch, 384 Кбит/с)

Семпл
Общее
Полное имя : 10.mgnovenij.sudby.2013.SATRip.MediaClub.avi
Формат : AVI
Формат/Информация : Audio Video Interleave
Размер файла : 1,46 Гбайт
Продолжительность : 1 ч. 42 м.
Общий поток : 2046 Кбит/сек
Название фильма : MediaClub
Программа кодирования : VirtualDubMod 1.5.10.2 (build 2540/release)
Библиотека кодирования : VirtualDubMod build 2540/release

Видео
Идентификатор : 0
Формат : MPEG-4 Visual
Профиль формата : Advanced Simple@L5
Параметр BVOP формата : 2
Параметр QPel формата : Нет
Параметр GMC формата : Без точки перехода
Параметр матрицы формата : Default (MPEG)
Идентификатор кодека : XVID
Идентификатор кодека/Подсказка : XviD
Продолжительность : 1 ч. 42 м.
Битрейт : 1653 Кбит/сек
Ширина : 720 пикселей
Высота : 400 пикселей
Соотношение сторон : 16:9
Частота кадров : 25,000 кадров/сек
Цветовое пространство : YUV
Субдискретизация насыщенности : 4:2:0
Битовая глубина : 8 бит
Тип развёртки : Прогрессивная
Метод сжатия : С потерями
Бит/(Пиксели*Кадры) : 0.230
Размер потока : 1,18 Гбайт (81%)
Библиотека кодирования : XviD 65

Аудио
Идентификатор : 1
Формат : AC-3
Формат/Информация : Audio Coding 3
Расширение режима : CM (complete main)
Параметр Endianness формата : Big
Идентификатор кодека : 2000
Продолжительность : 1 ч. 42 м.
Вид битрейта : Постоянный
Битрейт : 384 Кбит/сек
Каналы : 6 каналов
Расположение каналов : Front: L C R, Side: L R, LFE
Частота : 48,0 КГц
Битовая глубина : 16 бит
Метод сжатия : С потерями
Размер потока : 281 Мбайт (19%)
Выравнивание : Разделение по промежуткам
Продолжительность промежутка : 40 мс. (1,00 видеокадр)
Время предзагрузки промежутка : 500 мс.
pic pic pic
Для увеличения картинки щелкните мышкой по превью

Этот торрент недоступен для скачивания без регистрации, однако доступен по публичной magnet-ссылке (источники с публичных трекеров). Перед использованием ссылки прочтите, пожалуйста Пользовательское соглашение, а также как можно дольше оставайтесь на раздаче! Для того, чтобы скачать сам торрент-файл (который видит больше источников), а также для того, чтобы поблагодарить релизера, вам необходимо зарегистрироваться. Если регистрироваться лень - вы можете также попробовать скачать релиз по нашим партнерским ссылкам ниже.

[underverse.su].t47461.torrent
Трекер: Зарегистрирован   [ 16.12.2014 17:10 ]  

Статус: проверено (by Паукан at 16.12.2014 17:10)
Поблагодарили: пока никто не поблагодарил...
Тип торрента: публичный - доступные источники с открытых трекеров: 
Размер: 1,46 GB (занимает 0,33 DVDR, для записи нужно 1 болванка DVDR/RW)
 
 
Похожие темы
Форум Тема Автор Торрент Отв. Посл. сооб.
* Зарубежное кино [DVDRip, Low-Res HDRip, и т.д.] 10 мгновений судьбы / The Turning (Марика Уолш, Саймон Стоун, Дэвид Уэнем, Клэр МакКарти, Роберт Коннолли, Тони Эрс, Стивен Пейдж, Миа Васиковска, Джастин Курцел, Уорвик Торнтон) [2013 г., драма,... 90ytr90

0 | 683

31.07.2014 04:24


Яндекс.Метрика powered by Sphinx


В Н И М А Н И Е
Сайт не распространяет и не хранит электронные версии произведений, а лишь бесплатно и без коммерческой выгоды (не требуя взамен платы,
SMS и т.д.) предоставляет доступ к создаваемому пользователями каталогу ссылок на торрент-файлы, которые содержат только списки хеш-сумм.
Убедительная просьба с жалобами обращаться напрямую к пользователю, разместившему торрент файл.

Вверх