Loading...
Error

Секс на две ночи / Two Night Stand (Макс Николс) [2014 г., Мелодрама, Комедия, WEB-DLRip] MVO (RUS) + Original (ENG)

Статистика раздачи
Размер:  1,37 GB   |    Зарегистрирован:  1 год 11 месяцев   |    Скачан:  26 раз

Полного источника не было: 1 месяц 15 дней

Сидов:  0  |  0 KB/s  ]   Личеров:  0  |  0 KB/s  ]

* - сиды/пиры с внешних источников

   
 
Автор Сообщение

Ведьмочка Пол:Жен

10-Дек-2014 15:06

Секс на две ночи / Two Night Stand
«Before love. After sex»


Страна: США
Год выпуска: 2014
Жанр: Мелодрама, Комедия
Продолжительность: 01:26:13
Режиссёр: Макс Николс
В ролях: Анали Типтон, Майлз Теллер, Джессика Зор, Скотт Мескади, Берто Колон, Джош Салатин, Келлин Линдсэй, Майкл Шоуолтер, Ливэн Рамбин, Джои Лорен Эдамс
Сюжет фильма:
Девушка застряла дома у парня на целый день из-за ужасного снежного шторма. Благодаря этому несчастному случаю молодые люди получают возможность познакомиться поближе.

Озвучивание:
  • Профессиональный, Многоголосный, Русский
  • Оригинал, Английский


Качество видео: WEB-DLRip
Формат: AVI

Видео: XviD, 720x304 (2.35:1), 23.976 fps, ~1625 Кбит/сек
Аудио #1: AC-3, 256 Кбит/сек, 2 Канала, 48.0 КГц
Аудио #2: AC-3, 384 Кбит/сек, 6 Каналов, 48.0 КГц



Общее
Полное имя : \S3ks.Ha.dv3.n04i.2014.D.WEBDLRip.1400MB.avi
Формат : AVI
Формат/Информация : Audio Video Interleave
Размер файла : 1,37 Гбайт
Продолжительность : 1 ч. 26 м.
Общий поток : 2279 Кбит/сек
Программа кодирования : VirtualDubMod 1.5.10.3 | www.virtualdub-fr.org || (build 2550/release)
Библиотека кодирования : VirtualDubMod build 2550/release

Видео
Идентификатор : 0
Формат : MPEG-4 Visual
Профиль формата : Advanced Simple@L5
Параметр BVOP формата : 2
Параметр QPel формата : Нет
Параметр GMC формата : Без точки перехода
Параметр матрицы формата : Default (MPEG)
Идентификатор кодека : XVID
Идентификатор кодека/Подсказка : XviD
Продолжительность : 1 ч. 26 м.
Битрейт : 1625 Кбит/сек
Ширина : 720 пикселей
Высота : 304 пикселя
Соотношение сторон : 2,35:1
Частота кадров : 23,976 кадра/сек
Цветовое пространство : YUV
Субдискретизация насыщенности : 4:2:0
Битовая глубина : 8 бит
Тип развёртки : Прогрессивная
Метод сжатия : С потерями
Бит/(Пиксели*Кадры) : 0.310
Размер потока : 1002 Мбайт (71%)
Библиотека кодирования : XviD 1.2.1 (UTC 2008-12-04)

Аудио #1
Идентификатор : 1
Формат : AC-3
Формат/Информация : Audio Coding 3
Расширение режима : CM (complete main)
Параметр Endianness формата : Big
Идентификатор кодека : 2000
Продолжительность : 1 ч. 26 м.
Вид битрейта : Постоянный
Битрейт : 256 Кбит/сек
Каналы : 2 канала
Расположение каналов : Front: L R
Частота : 48,0 КГц
Битовая глубина : 16 бит
Метод сжатия : С потерями
Размер потока : 158 Мбайт (11%)
Выравнивание : Разделение по промежуткам
Продолжительность промежутка : 42 мс. (1,00 видеокадр)
Время предзагрузки промежутка : 500 мс.

Аудио #2
Идентификатор : 2
Формат : AC-3
Формат/Информация : Audio Coding 3
Расширение режима : CM (complete main)
Параметр Endianness формата : Big
Идентификатор кодека : 2000
Продолжительность : 1 ч. 26 м.
Вид битрейта : Постоянный
Битрейт : 384 Кбит/сек
Каналы : 6 каналов
Расположение каналов : Front: L C R, Side: L R, LFE
Частота : 48,0 КГц
Битовая глубина : 16 бит
Метод сжатия : С потерями
Размер потока : 237 Мбайт (17%)
Выравнивание : Разделение по промежуткам
Продолжительность промежутка : 42 мс. (1,00 видеокадр)
Время предзагрузки промежутка : 500 мс.


picpicpicpicpic
Для увеличения картинки щелкните мышкой по превью



Этот торрент недоступен для скачивания без регистрации, однако доступен по публичной magnet-ссылке (источники с публичных трекеров). Перед использованием ссылки прочтите, пожалуйста Пользовательское соглашение, а также как можно дольше оставайтесь на раздаче! Для того, чтобы скачать сам торрент-файл (который видит больше источников), а также для того, чтобы поблагодарить релизера, вам необходимо зарегистрироваться. Если регистрироваться лень - вы можете также попробовать скачать релиз по нашим партнерским ссылкам ниже.

[underverse.su].t47247.torrent
Трекер: Зарегистрирован   [ 10.12.2014 15:06 ]  

Статус: проверено (by Ведьмочка at 10.12.2014 17:38)
Поблагодарили: 3 человека
Тип торрента: публичный - доступные источники с открытых трекеров: 
Размер: 1,37 GB (занимает 0,31 DVDR, для записи нужно 1 болванка DVDR/RW)
 
 
Похожие темы
Форум Тема Автор Торрент Отв. Посл. сооб.
Зарубежное кино [DVDRip, Low-Res HDRip, и т.д.] Секс на две ночи / Two Night Stand (Макс Николс) [2014 г., Мелодрама, Комедия, WEB-DLRip-AVC] MVO (RUS) + Original (ENG) + Subs (ENG) Ведьмочка
1 | 0

0 | 577

23

10.12.2014 16:52

Зарубежное кино [DVDRip, Low-Res HDRip, и т.д.] Секс на две ночи / Любовь с первого взгляда / Two Night Stand (Макс Николс / Max Nichols) [2014 г., мелодрама, комедия, HDRp] MVO 90ytr90
3 | 0

0 | 558

12

01.03.2015 14:56

Зарубежное кино [HDDVDRip / BDRip / WEB-DL / HDTV 1080/720р] Секс на две ночи / Two Night Stand (Макс Николс) [2014 г., Мелодрама, Комедия, WEB-DL 720p] MVO (RUS) + Original (ENG) + Subs (ENG) Ведьмочка
24 | 0

0 | 392

23

10.12.2014 15:01

Зарубежное кино [HDDVDRip / BDRip / WEB-DL / HDTV 1080/720р] Секс на две ночи / Любовь с первого взгляда / Two Night Stand (Макс Николс / Max Nichols) [2014 г., мелодрама, комедия, BDRip 720p] MVO + Original (Eng) + Sub (Rus, Eng) 90ytr90
5 | 0

0 | 607

5

24.02.2015 06:38

Зарубежное кино [HDDVDRip / BDRip / WEB-DL / HDTV 1080/720р] Секс на две ночи / Любовь с первого взгляда / Two Night Stand (Макс Николс / Max Nichols) [2014 г., мелодрама, комедия, BDRip 720p] MVO + Sub (Rus, Eng) 90ytr90
1 | 0

0 | 535

7

01.03.2015 14:44


Яндекс.Метрика powered by Sphinx


В Н И М А Н И Е
Сайт не распространяет и не хранит электронные версии произведений, а лишь бесплатно и без коммерческой выгоды (не требуя взамен платы,
SMS и т.д.) предоставляет доступ к создаваемому пользователями каталогу ссылок на торрент-файлы, которые содержат только списки хеш-сумм.
Убедительная просьба с жалобами обращаться напрямую к пользователю, разместившему торрент файл.

Вверх