Loading...
Error

Плохая прическа / Pelo malo (Мариана Рондон) [2013 г., Драма, WEBRip] DVO (RUS, PashaUp & VikaStar) + Subs (ESP)

Статистика раздачи
Размер:  1,37 GB   |    Зарегистрирован:  1 год 11 месяцев   |    Скачан:  8 раз

Полного источника не было: 1 год 8 месяцев

Сидов:  0  |  0 KB/s  ]   Личеров:  0  |  0 KB/s  ]

* - сиды/пиры с внешних источников

   
 
Автор Сообщение

Ведьмочка Пол:Жен

09-Дек-2014 15:46

Плохая прическа / Pelo malo


Страна: США
Год выпуска: 2013
Жанр: Драма
Продолжительность: 01:29:29
Режиссёр: Мариана Рондон
В ролях: Сэмюэл Ланж Замбрано, Саманта Кастилло, Бето Бенитес, Нелли Рамос, Мария Эмиллия Сульбаран
Сюжет фильма:
В 9-летнего Жуньора очень непослушные кудри. Он хочет, чтобы в школьном альбоме волосы выглядели прямым, как у модного поп-певца. Его мать Марта обессиленная борьбой за выживание в Каракасе — на одержимость внешностью сына ее уже не хватает. Чем больше Жуньор старается нравиться матери, тем сильнее она его отталкивает.

Озвучивание:
  • Любительский, Двухголосный, Русский [PashaUp & VikaStar]

Качество видео: WEBRip
Формат: AVI

Видео: XviD, 720x384 (1.85:1), 25.000 fps, ~1985 Кбит/сек
Аудио: AC-3, 192 Кбит/сек, 2 Канала, 48.0 КГц

Субтитры: Испанские, hardsub



Общее
Полное имя : \Pelo.malo.2013.WEBRip.avi
Формат : AVI
Формат/Информация : Audio Video Interleave
Размер файла : 1,37 Гбайт
Продолжительность : 1 ч. 29 м.
Общий поток : 2187 Кбит/сек
Программа кодирования : VirtualDubMod 1.5.10.2 (build 2542/release)
Библиотека кодирования : VirtualDubMod build 2542/release

Видео
Идентификатор : 0
Формат : MPEG-4 Visual
Профиль формата : Advanced Simple@L5
Параметр BVOP формата : 2
Параметр QPel формата : Нет
Параметр GMC формата : Без точки перехода
Параметр матрицы формата : Default (MPEG)
Идентификатор кодека : XVID
Идентификатор кодека/Подсказка : XviD
Продолжительность : 1 ч. 29 м.
Битрейт : 1985 Кбит/сек
Ширина : 720 пикселей
Высота : 384 пикселя
Соотношение сторон : 1,85:1
Частота кадров : 25,000 кадров/сек
Цветовое пространство : YUV
Субдискретизация насыщенности : 4:2:0
Битовая глубина : 8 бит
Тип развёртки : Прогрессивная
Метод сжатия : С потерями
Бит/(Пиксели*Кадры) : 0.287
Размер потока : 1,24 Гбайт (91%)
Библиотека кодирования : XviD 1.2.1 (UTC 2008-12-04)

Аудио
Идентификатор : 1
Формат : AC-3
Формат/Информация : Audio Coding 3
Расширение режима : CM (complete main)
Параметр Endianness формата : Big
Идентификатор кодека : 2000
Продолжительность : 1 ч. 29 м.
Вид битрейта : Постоянный
Битрейт : 192 Кбит/сек
Каналы : 2 канала
Расположение каналов : Front: L R
Частота : 48,0 КГц
Битовая глубина : 16 бит
Метод сжатия : С потерями
Размер потока : 123 Мбайт (9%)
Выравнивание : Разделение по промежуткам
Продолжительность промежутка : 40 мс. (1,00 видеокадр)
Время предзагрузки промежутка : 500 мс.


picpicpicpicpic
Для увеличения картинки щелкните мышкой по превью



Этот торрент недоступен для скачивания без регистрации, однако доступен по публичной magnet-ссылке (источники с публичных трекеров). Перед использованием ссылки прочтите, пожалуйста Пользовательское соглашение, а также как можно дольше оставайтесь на раздаче! Для того, чтобы скачать сам торрент-файл (который видит больше источников), а также для того, чтобы поблагодарить релизера, вам необходимо зарегистрироваться. Если регистрироваться лень - вы можете также попробовать скачать релиз по нашим партнерским ссылкам ниже.

[underverse.su].t47223.torrent
Трекер: Зарегистрирован   [ 09.12.2014 15:46 ]  

Статус: проверено (by Ведьмочка at 09.12.2014 17:53)
Поблагодарили: 1 человек
Тип торрента: публичный - доступные источники с открытых трекеров: 
Размер: 1,37 GB (занимает 0,31 DVDR, для записи нужно 1 болванка DVDR/RW)
 
 

Яндекс.Метрика powered by Sphinx


В Н И М А Н И Е
Сайт не распространяет и не хранит электронные версии произведений, а лишь бесплатно и без коммерческой выгоды (не требуя взамен платы,
SMS и т.д.) предоставляет доступ к создаваемому пользователями каталогу ссылок на торрент-файлы, которые содержат только списки хеш-сумм.
Убедительная просьба с жалобами обращаться напрямую к пользователю, разместившему торрент файл.

Вверх