Loading...
Error

Похоже на любовь / It Felt Like Love (Элиза Хиттман) [2013 г., Драма, WEB-DLRip] DVO (RUS, PashaUp & ИриСКА)

Статистика раздачи
Размер:  1,36 GB   |    Зарегистрирован:  1 год 11 месяцев   |    Скачан:  4 раза

Полного источника не было: 1 год 3 месяца

Сидов:  0  |  0 KB/s  ]   Личеров:  0  |  0 KB/s  ]

* - сиды/пиры с внешних источников

   
 
Автор Сообщение

Ведьмочка Пол:Жен

09-Дек-2014 15:15

Похоже на любовь / It Felt Like Love


Страна: США
Год выпуска: 2013
Жанр: Драма
Продолжительность: 01:22:42
Режиссёр: Элиза Хиттман
В ролях: Джина Пьерсанти, Джованна Сальмени, Ронен Рубеинштейн, Джесси Кордаско, Ник Розен, Ричи Фолио, Кейс Прайм, Кевин Энтони Раен, София Джуревис
Сюжет фильма:
Лила — одинокая и замкнутая 14-летняя девушка. Однажды, она знакомится на пляже с Сэмми — симпатичным парнем, который на несколько лет старше её. Чтобы произвести впечатление на подруг она выдумывает историю о том, что она якобы встречается с Сэмми, но постепенно всё больше начинает запутываться в собственной лжи…

Озвучивание:
  • Любительский, Двухголосный, Русский [PashaUp & ИриСКА]

Качество видео: WEB-DLRip
Формат: AVI

Видео: XviD, 720x384 (1.85:1), 23.976 fps, ~1953 Кбит/сек
Аудио: AC-3, 384 Кбит/сек, 6 Каналов, 48.0 КГц



Общее
Полное имя : \It.Felt.Like.Love.2013.WEB-DLRip.avi
Формат : AVI
Формат/Информация : Audio Video Interleave
Размер файла : 1,36 Гбайт
Продолжительность : 1 ч. 22 м.
Общий поток : 2346 Кбит/сек
Программа кодирования : VirtualDubMod 1.5.10.2 (build 2542/release)
Библиотека кодирования : VirtualDubMod build 2542/release

Видео
Идентификатор : 0
Формат : MPEG-4 Visual
Профиль формата : Advanced Simple@L5
Параметр BVOP формата : 2
Параметр QPel формата : Нет
Параметр GMC формата : Без точки перехода
Параметр матрицы формата : Default (MPEG)
Идентификатор кодека : XVID
Идентификатор кодека/Подсказка : XviD
Продолжительность : 1 ч. 22 м.
Битрейт : 1953 Кбит/сек
Ширина : 720 пикселей
Высота : 384 пикселя
Соотношение сторон : 1,85:1
Частота кадров : 23,976 кадра/сек
Цветовое пространство : YUV
Субдискретизация насыщенности : 4:2:0
Битовая глубина : 8 бит
Тип развёртки : Прогрессивная
Метод сжатия : С потерями
Бит/(Пиксели*Кадры) : 0.295
Размер потока : 1,13 Гбайт (83%)
Библиотека кодирования : XviD 1.2.1 (UTC 2008-12-04)

Аудио
Идентификатор : 1
Формат : AC-3
Формат/Информация : Audio Coding 3
Расширение режима : CM (complete main)
Параметр Endianness формата : Big
Идентификатор кодека : 2000
Продолжительность : 1 ч. 22 м.
Вид битрейта : Постоянный
Битрейт : 384 Кбит/сек
Каналы : 6 каналов
Расположение каналов : Front: L C R, Side: L R, LFE
Частота : 48,0 КГц
Битовая глубина : 16 бит
Метод сжатия : С потерями
Размер потока : 227 Мбайт (16%)
Выравнивание : Разделение по промежуткам
Продолжительность промежутка : 42 мс. (1,00 видеокадр)
Время предзагрузки промежутка : 500 мс.


picpicpicpicpic
Для увеличения картинки щелкните мышкой по превью



Этот торрент недоступен для скачивания без регистрации, однако доступен по публичной magnet-ссылке (источники с публичных трекеров). Перед использованием ссылки прочтите, пожалуйста Пользовательское соглашение, а также как можно дольше оставайтесь на раздаче! Для того, чтобы скачать сам торрент-файл (который видит больше источников), а также для того, чтобы поблагодарить релизера, вам необходимо зарегистрироваться. Если регистрироваться лень - вы можете также попробовать скачать релиз по нашим партнерским ссылкам ниже.

[underverse.su].t47222.torrent
Трекер: Зарегистрирован   [ 09.12.2014 15:15 ]  

Статус: проверено (by Ведьмочка at 09.12.2014 15:16)
Поблагодарили: 1 человек
Тип торрента: публичный - доступные источники с открытых трекеров: 
Размер: 1,36 GB (занимает 0,31 DVDR, для записи нужно 1 болванка DVDR/RW)
 
 

Яндекс.Метрика powered by Sphinx


В Н И М А Н И Е
Сайт не распространяет и не хранит электронные версии произведений, а лишь бесплатно и без коммерческой выгоды (не требуя взамен платы,
SMS и т.д.) предоставляет доступ к создаваемому пользователями каталогу ссылок на торрент-файлы, которые содержат только списки хеш-сумм.
Убедительная просьба с жалобами обращаться напрямую к пользователю, разместившему торрент файл.

Вверх