Loading...
Error

Прекрасная молодость / Hermosa juventud (Хайме Росалес) [2014 г., Драма, WEB-DLRip] VO (RUS, PashaUp)

Статистика раздачи
Размер:  1,46 GB   |    Зарегистрирован:  1 год 11 месяцев   |    Скачан:  16 раз

Полного источника не было: 3 месяца 26 дней

Сидов:  0  |  0 KB/s  ]   Личеров:  0  |  0 KB/s  ]

* - сиды/пиры с внешних источников

   
 
Автор Сообщение

Ведьмочка Пол:Жен

09-Дек-2014 14:47

Прекрасная молодость / Hermosa juventud


Страна: Испания
Год выпуска: 2014
Жанр: Драма
Продолжительность: 01:38:13
Режиссёр: Хайме Росалес
В ролях: Ингрид Гарсия Йонсон, Карлос Родригес, Инма Ниэто, Фернадо Барона, Жуанма Кальдерон, Патриция Менди, Мигель Гуардиола
Сюжет фильма:
Кинофильм рассказывает нам историю взаимоотношений Натальи и Карлоса – парочки двадцатилетних испанских влюбленных. У обоих большие амбиции и грандиозные планы на будущее, однако ограниченные финансовые возможности лишают молодых людей шанса воплотить свои мечты в жизнь. Каждый день им буквально приходится бороться за выживание в безжалостном современном обществе. Рождение дочери Юлии лишь усугубляет материальное положение героев. И тогда, чтобы заработать немного денег, Карлос и Наталья принимают решение снять любительский порнофильм...

Озвучивание:
  • Любительский, Одноголосный, Русский [PashaUp]

Качество видео: WEB-DLRip
Формат: AVI

Видео: XviD, 720x304 (2.35:1), 25.000 fps, ~1668 Кбит/сек
Аудио: AC-3, 448 Кбит/сек, 6 Каналов, 48.0 КГц



Общее
Полное имя : \Beautiful.Youth.2014.WEB-DLRip.avi
Формат : AVI
Формат/Информация : Audio Video Interleave
Размер файла : 1,46 Гбайт
Продолжительность : 1 ч. 38 м.
Общий поток : 2126 Кбит/сек
Программа кодирования : VirtualDubMod 1.5.10.2 (build 2542/release)
Библиотека кодирования : VirtualDubMod build 2542/release

Видео
Идентификатор : 0
Формат : MPEG-4 Visual
Профиль формата : Advanced Simple@L5
Параметр BVOP формата : 1
Параметр QPel формата : Нет
Параметр GMC формата : Без точки перехода
Параметр матрицы формата : Default (MPEG)
Идентификатор кодека : XVID
Идентификатор кодека/Подсказка : XviD
Продолжительность : 1 ч. 38 м.
Битрейт : 1668 Кбит/сек
Ширина : 720 пикселей
Высота : 304 пикселя
Соотношение сторон : 2,35:1
Частота кадров : 25,000 кадров/сек
Цветовое пространство : YUV
Субдискретизация насыщенности : 4:2:0
Битовая глубина : 8 бит
Тип развёртки : Прогрессивная
Метод сжатия : С потерями
Бит/(Пиксели*Кадры) : 0.305
Размер потока : 1,14 Гбайт (78%)
Библиотека кодирования : XviD 1.2.1 (UTC 2008-12-04)

Аудио
Идентификатор : 1
Формат : AC-3
Формат/Информация : Audio Coding 3
Расширение режима : CM (complete main)
Параметр Endianness формата : Big
Идентификатор кодека : 2000
Продолжительность : 1 ч. 38 м.
Вид битрейта : Постоянный
Битрейт : 448 Кбит/сек
Каналы : 6 каналов
Расположение каналов : Front: L C R, Side: L R, LFE
Частота : 48,0 КГц
Битовая глубина : 16 бит
Метод сжатия : С потерями
Размер потока : 315 Мбайт (21%)
Выравнивание : Разделение по промежуткам
Продолжительность промежутка : 40 мс. (1,00 видеокадр)
Время предзагрузки промежутка : 500 мс.


picpicpicpicpic
Для увеличения картинки щелкните мышкой по превью



Этот торрент недоступен для скачивания без регистрации, однако доступен по публичной magnet-ссылке (источники с публичных трекеров). Перед использованием ссылки прочтите, пожалуйста Пользовательское соглашение, а также как можно дольше оставайтесь на раздаче! Для того, чтобы скачать сам торрент-файл (который видит больше источников), а также для того, чтобы поблагодарить релизера, вам необходимо зарегистрироваться. Если регистрироваться лень - вы можете также попробовать скачать релиз по нашим партнерским ссылкам ниже.

[underverse.su].t47221.torrent
Трекер: Зарегистрирован   [ 09.12.2014 14:47 ]  

Статус: проверено (by Ведьмочка at 09.12.2014 17:05)
Поблагодарили: пока никто не поблагодарил...
Тип торрента: публичный - доступные источники с открытых трекеров: 
Размер: 1,46 GB (занимает 1/3 DVDR, для записи нужно 1 болванка DVDR/RW)
 
 

Яндекс.Метрика powered by Sphinx


В Н И М А Н И Е
Сайт не распространяет и не хранит электронные версии произведений, а лишь бесплатно и без коммерческой выгоды (не требуя взамен платы,
SMS и т.д.) предоставляет доступ к создаваемому пользователями каталогу ссылок на торрент-файлы, которые содержат только списки хеш-сумм.
Убедительная просьба с жалобами обращаться напрямую к пользователю, разместившему торрент файл.

Вверх