Loading...
Error

Я - Начало / I Origins (Майк Кэхилл) [2014 г., Фантастика, Драма, WEB-DLRip] MVO (RUS, iTunes Russia) + Original (ENG)

Статистика раздачи
Размер:  2,05 GB   |    Зарегистрирован:  1 год 11 месяцев   |    Скачан:  66 раз

Полного источника не было: 10 месяцев

Сидов:  0  |  0 KB/s  ]   Личеров:  0  |  0 KB/s  ]

* - сиды/пиры с внешних источников

   
 
Автор Сообщение

Ведьмочка Пол:Жен

09-Дек-2014 14:27

Я - Начало / I Origins


Страна: США
Год выпуска: 2014
Жанр: Фантастика, Драма
Продолжительность: 01:48:07
Режиссёр: Майк Кэхилл
В ролях: Майкл Питт, Стивен Ян, Астрид Берже-Фрисби, Брит Марлинг, Дориен Маклоги, Чарльз В. Грэй, Джон Шиумо, Фараша Бэйлок, Ако, Кристофер Сантамария
Сюжет фильма:
Молекулярный биолог и его напарница по лаборатории делают потрясающее открытие, способное коренным образом изменить современное общество.

Озвучивание:
  • Профессиональный, Многоголосный, Русский [iTunes Russia]
  • Оригинал, Английский

Качество видео: WEB-DLRip
Формат: AVI

Видео: XviD, 720x304 (2.35:1), 23.976 fps, ~1939 Кбит/сек
Аудио #1: AC-3, 384 Кбит/сек, 6 Каналов, 48.0 КГц
Аудио #2: AC-3, 384 Кбит/сек, 6 Каналов, 48.0 КГц

Rip by:



Общее
Полное имя : \I Origins (2014) WEB-DL Rip.avi
Формат : AVI
Формат/Информация : Audio Video Interleave
Профиль формата : OpenDML
Настройки формата : rec
Размер файла : 2,05 Гбайт
Продолжительность : 1 ч. 48 м.
Общий поток : 2711 Кбит/сек
Программа кодирования : AVI-Mux GUI 1.17.8.3, Feb 16 201019:42:50

Видео
Идентификатор : 0
Формат : MPEG-4 Visual
Профиль формата : Advanced Simple@L5
Параметр BVOP формата : Нет
Параметр QPel формата : Нет
Параметр GMC формата : Без точки перехода
Параметр матрицы формата : Default (H.263)
Идентификатор кодека : XVID
Идентификатор кодека/Подсказка : XviD
Продолжительность : 1 ч. 48 м.
Битрейт : 1939 Кбит/сек
Ширина : 720 пикселей
Высота : 304 пикселя
Соотношение сторон : 2,35:1
Частота кадров : 23,976 кадра/сек
Цветовое пространство : YUV
Субдискретизация насыщенности : 4:2:0
Битовая глубина : 8 бит
Тип развёртки : Прогрессивная
Метод сжатия : С потерями
Бит/(Пиксели*Кадры) : 0.369
Размер потока : 1,46 Гбайт (72%)
Библиотека кодирования : XviD 62

Аудио #1
Идентификатор : 1
Формат : AC-3
Формат/Информация : Audio Coding 3
Расширение режима : CM (complete main)
Параметр Endianness формата : Big
Идентификатор кодека : 2000
Продолжительность : 1 ч. 47 м.
Вид битрейта : Постоянный
Битрейт : 384 Кбит/сек
Каналы : 6 каналов
Расположение каналов : Front: L C R, Side: L R, LFE
Частота : 48,0 КГц
Битовая глубина : 16 бит
Метод сжатия : С потерями
Размер потока : 296 Мбайт (14%)
Выравнивание : Соединение по промежуткам
Продолжительность промежутка : 64 мс. (1,54 видеокадра)
Время предзагрузки промежутка : 192 мс.
Заголовок : Rus_295

Аудио #2
Идентификатор : 2
Формат : AC-3
Формат/Информация : Audio Coding 3
Расширение режима : CM (complete main)
Параметр Endianness формата : Big
Идентификатор кодека : 2000
Продолжительность : 1 ч. 47 м.
Вид битрейта : Постоянный
Битрейт : 384 Кбит/сек
Каналы : 6 каналов
Расположение каналов : Front: L C R, Side: L R, LFE
Частота : 48,0 КГц
Битовая глубина : 16 бит
Метод сжатия : С потерями
Размер потока : 296 Мбайт (14%)
Выравнивание : Соединение по промежуткам
Продолжительность промежутка : 64 мс. (1,54 видеокадра)
Время предзагрузки промежутка : 192 мс.
Заголовок : Eng_295


picpicpicpicpic
Для увеличения картинки щелкните мышкой по превью



Этот торрент недоступен для скачивания без регистрации, однако доступен по публичной magnet-ссылке (источники с публичных трекеров). Перед использованием ссылки прочтите, пожалуйста Пользовательское соглашение, а также как можно дольше оставайтесь на раздаче! Для того, чтобы скачать сам торрент-файл (который видит больше источников), а также для того, чтобы поблагодарить релизера, вам необходимо зарегистрироваться. Если регистрироваться лень - вы можете также попробовать скачать релиз по нашим партнерским ссылкам ниже.

[underverse.su].t47220.torrent
Трекер: Зарегистрирован   [ 09.12.2014 14:27 ]  

Статус: T временная (by Ведьмочка at 09.12.2014 15:49)
Поблагодарили: пока никто не поблагодарил...
Тип торрента: публичный - доступные источники с открытых трекеров: 
Размер: 2,05 GB (занимает 0,47 DVDR, для записи нужно 1 болванка DVDR/RW)
 
 
Похожие темы
Форум Тема Автор Торрент Отв. Посл. сооб.
Зарубежное кино [DVDRip, Low-Res HDRip, и т.д.] Я - Начало / I Origins (Майк Кэхилл) [2014 г., Фантастика, Драма, WEB-DLRip] VO (RUS, PashaUp) Ведьмочка
0 | 0

0 | 1331

105

04.12.2014 19:59

T Зарубежное кино [DVDRip, Low-Res HDRip, и т.д.] Я - Начало / I Origins (Майк Кэхилл) [2014 г., Фантастика, Драма, WEB-DLRip] MVO (RUS, iTunes Russia) Ведьмочка
23 | 1

0 | 732

58

09.12.2014 00:27

Зарубежное кино [HDDVDRip / BDRip / WEB-DL / HDTV 1080/720р] Я - Начало / I Origins (Майк Кэхилл) [2014 г., Фантастика, Драма, WEB-DL 720p] VO (RUS, PashaUp) + Original (ENG) + Subs (RUS, ENG, UKR) Ведьмочка
34 | 0

0 | 918

50

04.12.2014 19:53

T Зарубежное кино [HDDVDRip / BDRip / WEB-DL / HDTV 1080/720р] Я - Начало / I Origins (Майк Кэхилл) [2014 г., Фантастика, Драма, WEB-DL 720p] MVO (RUS, iTunes Russia) + Original (ENG) + Subs (RUS, ENG, UKR) Ведьмочка
32 | 1

0 | 599

23

09.12.2014 00:38

T Зарубежное кино [HDDVDRip / BDRip / WEB-DL / HDTV 1080/720р] Я - Начало / I Origins (Майк Кэхилл) [2014 г., Фантастика, Драма, WEB-DL 1080p] MVO (RUS, iTunes Russia) + Original (ENG) + Subs (RUS, ENG, UKR) Ведьмочка
64 | 1

0 | 632

40

09.12.2014 11:21


Яндекс.Метрика powered by Sphinx


В Н И М А Н И Е
Сайт не распространяет и не хранит электронные версии произведений, а лишь бесплатно и без коммерческой выгоды (не требуя взамен платы,
SMS и т.д.) предоставляет доступ к создаваемому пользователями каталогу ссылок на торрент-файлы, которые содержат только списки хеш-сумм.
Убедительная просьба с жалобами обращаться напрямую к пользователю, разместившему торрент файл.

Вверх