Loading...
Error

009-1: Конец начала / 009 No 1: The End of the Beginning (Койти Сакамото) [2013 г., Фантастика, Боевик, HDRip] DVO (RUS, Влад & Снежинка)

Статистика раздачи
Размер:  1,36 GB   |    Зарегистрирован:  1 год 11 месяцев   |    Скачан:  23 раза

Полного источника не было: 3 месяца 13 дней

Сидов:  0  |  0 KB/s  ]   Личеров:  0  |  0 KB/s  ]

* - сиды/пиры с внешних источников

   
 
Автор Сообщение

Ведьмочка Пол:Жен

09-Дек-2014 10:59

009-1: Конец начала / 009 No 1: The End of the Beginning
«She was forced to become the perfect killing machine with a heart of steel»


Страна: Япония
Год выпуска: 2013
Жанр: Фантастика, Боевик
Продолжительность: 01:24:14
Режиссёр: Койти Сакамото
В ролях: Мами Абе, Рёхеи Абе, Санаэ Хитоми, Хиротаро Хонда, Мао Ишимиши, Маюко Иваса, Минехиро Кинимото, Шизука Мидорикава, Нао Нагасава, Аюми Шимозоно
Сюжет фильма:
История разворачивается в будущем. Мир разделён на 2 блока: Западный и Восточный, между которыми ведётся холодная война. Милен — шпионка-киборг 009-1 из Западного блока. Она тайно пробирается в страну J (пограничная область между двумя блоками), чтобы разоблачить торговцев людьми. В ходе выполнения своей миссии она знакомится с парнем по имени Крис, который рассказывает ей важную информацию. Милен заканчивает миссию, но Криса забыть не может…

Озвучивание:
  • Любительский, Двухголосный, Русский [Влад & Снежинка]

Качество видео: HDRip
Формат: AVI

Видео: XviD, 720x384 (1.85:1), 23.976 fps, ~2114 Кбит/сек
Аудио: AC-3, 192 Кбит/сек, 2 Канала, 48.0 КГц



Общее
Полное имя : \009.No.1.2013.L2.HDRip.avi
Формат : AVI
Формат/Информация : Audio Video Interleave
Размер файла : 1,36 Гбайт
Продолжительность : 1 ч. 24 м.
Общий поток : 2316 Кбит/сек
Программа кодирования : VirtualDubMod 1.5.10.3 | www.virtualdub-fr.org || (build 2550/release)
Библиотека кодирования : VirtualDubMod build 2550/release

Видео
Идентификатор : 0
Формат : MPEG-4 Visual
Профиль формата : Advanced Simple@L5
Параметр BVOP формата : 1
Параметр QPel формата : Нет
Параметр GMC формата : Без точки перехода
Параметр матрицы формата : Выборочная
Идентификатор кодека : XVID
Идентификатор кодека/Подсказка : XviD
Продолжительность : 1 ч. 24 м.
Битрейт : 2114 Кбит/сек
Ширина : 720 пикселей
Высота : 384 пикселя
Соотношение сторон : 1,85:1
Частота кадров : 23,976 кадра/сек
Цветовое пространство : YUV
Субдискретизация насыщенности : 4:2:0
Битовая глубина : 8 бит
Тип развёртки : Прогрессивная
Метод сжатия : С потерями
Бит/(Пиксели*Кадры) : 0.319
Размер потока : 1,24 Гбайт (91%)
Библиотека кодирования : XviD 73

Аудио
Идентификатор : 1
Формат : AC-3
Формат/Информация : Audio Coding 3
Расширение режима : CM (complete main)
Параметр Endianness формата : Big
Идентификатор кодека : 2000
Продолжительность : 1 ч. 24 м.
Вид битрейта : Постоянный
Битрейт : 192 Кбит/сек
Каналы : 2 канала
Расположение каналов : Front: L R
Частота : 48,0 КГц
Битовая глубина : 16 бит
Метод сжатия : С потерями
Размер потока : 116 Мбайт (8%)
Выравнивание : Разделение по промежуткам
Продолжительность промежутка : 42 мс. (1,00 видеокадр)
Время предзагрузки промежутка : 500 мс.


picpicpicpicpic
Для увеличения картинки щелкните мышкой по превью



Этот торрент недоступен для скачивания без регистрации, однако доступен по публичной magnet-ссылке (источники с публичных трекеров). Перед использованием ссылки прочтите, пожалуйста Пользовательское соглашение, а также как можно дольше оставайтесь на раздаче! Для того, чтобы скачать сам торрент-файл (который видит больше источников), а также для того, чтобы поблагодарить релизера, вам необходимо зарегистрироваться. Если регистрироваться лень - вы можете также попробовать скачать релиз по нашим партнерским ссылкам ниже.

[underverse.su].t47209.torrent
Трекер: Зарегистрирован   [ 09.12.2014 10:59 ]  

Статус: проверено (by Ведьмочка at 09.12.2014 11:00)
Поблагодарили: пока никто не поблагодарил...
Тип торрента: публичный - доступные источники с открытых трекеров: 
Размер: 1,36 GB (занимает 0,31 DVDR, для записи нужно 1 болванка DVDR/RW)
 
 
Похожие темы
Форум Тема Автор Торрент Отв. Посл. сооб.
Зарубежное кино [DVDRip, Low-Res HDRip, и т.д.] 009-1: Конец начала / 009 No 1: The End of the Beginning (Койти Сакамото / Koichi Sakamoto) [2013 г., фантастика, боевик, WEB-DLRip] DVO (DeadSno & den904) 90ytr90
0 | 0

0 | 952

49

31.07.2014 04:15

Зарубежное кино [HDDVDRip / BDRip / WEB-DL / HDTV 1080/720р] 009-1: Конец начала / 009 No 1: The End of the Beginning (Койти Сакамото) [2013 г., Фантастика, Боевик, BDRip 720p] DVO (RUS, Влад & Снежинка) Ведьмочка
0 | 0

0 | 502

16

09.12.2014 11:12


Яндекс.Метрика powered by Sphinx


В Н И М А Н И Е
Сайт не распространяет и не хранит электронные версии произведений, а лишь бесплатно и без коммерческой выгоды (не требуя взамен платы,
SMS и т.д.) предоставляет доступ к создаваемому пользователями каталогу ссылок на торрент-файлы, которые содержат только списки хеш-сумм.
Убедительная просьба с жалобами обращаться напрямую к пользователю, разместившему торрент файл.

Вверх