Loading...
Error

Братские узы / Серии: 1-2 из 2 (Владимир Харченко-Куликовский) [2014 г., Мелодрама, HDTVRip]

Статистика раздачи
Размер:  2,74 GB   |    Зарегистрирован:  2 года 2 месяца   |    Скачан:  6 раз

Полного источника не было: 1 год 10 месяцев

Сидов:  0  |  0 KB/s  ]   Личеров:  0  |  0 KB/s  ]

* - сиды/пиры с внешних источников

   
 
Автор Сообщение

Ведьмочка Пол:Жен

07-Дек-2014 15:13

Братские узы


Страна: Россия , Украина
Год выпуска: 2014
Жанр: Мелодрама
Продолжительность: ~01:33:00 (каждая серия)
Режиссёр: Владимир Харченко-Куликовский
В ролях: Люба Баханкова, Иван Жидков, Денис Косяков, Дарья Иванова, Наталия Денисенко, Инна Мирошниченко, Олег Треповский, Маргарита Бурковская, Сергей Калантай, Фатима Горбенко
Сюжет фильма:
Что важнее — любовь или призвание? Ксюше не нужно выбирать. Ведь у нее есть искренне любящий Саша и любимая работа — в кардиологии Московской больницы. Более того, у нее, простой девушки из Саратова, есть воплощенная мечта — она студентка московского медицинского института.

Но ее счастье не длится вечно. Умирает Ксюшин папа. Когда Ксюша уезжает на похороны, подруга Яна и начальница Калинина распускают сплетни, что Ксюша — любовница главврача Слепенкова. И самое страшное, что этим наветам верит Саша…


Качество видео: HDTVRip
Формат: AVI

Видео: XviD, 720x400 (16:9), 25.000 fps, ~1600 Кбит/сек
Аудио: AC-3, 192 Кбит/сек, 2 Канала, 48.0 КГц

Rip by:



Общее
Полное имя : \Bratskie.uzy.2014.HDTVRip.RG.Russkie.serialy.&.Files-x\Bratskie.uzy.02.seriya.2014.HDTVRip.RG.Russkie.serialy.&.Files-x.avi
Формат : AVI
Формат/Информация : Audio Video Interleave
Профиль формата : OpenDML
Размер файла : 1,37 Гбайт
Продолжительность : 1 ч. 32 м.
Общий поток : 2110 Кбит/сек
Программа кодирования : Lavf53.19.0

Видео
Идентификатор : 0
Формат : MPEG-4 Visual
Профиль формата : Advanced Simple@L5
Параметр BVOP формата : 1
Параметр QPel формата : Нет
Параметр GMC формата : Без точки перехода
Параметр матрицы формата : Выборочная
Идентификатор кодека : XVID
Идентификатор кодека/Подсказка : XviD
Продолжительность : 1 ч. 32 м.
Битрейт : 1905 Кбит/сек
Ширина : 720 пикселей
Высота : 400 пикселей
Соотношение сторон : 16:9
Частота кадров : 25,000 кадров/сек
Цветовое пространство : YUV
Субдискретизация насыщенности : 4:2:0
Битовая глубина : 8 бит
Тип развёртки : Прогрессивная
Метод сжатия : С потерями
Бит/(Пиксели*Кадры) : 0.265
Размер потока : 1,23 Гбайт (90%)
Библиотека кодирования : XviD 73

Аудио
Идентификатор : 1
Формат : AC-3
Формат/Информация : Audio Coding 3
Расширение режима : CM (complete main)
Параметр Endianness формата : Big
Идентификатор кодека : 2000
Продолжительность : 1 ч. 32 м.
Вид битрейта : Постоянный
Битрейт : 192 Кбит/сек
Каналы : 2 канала
Расположение каналов : Front: L R
Частота : 48,0 КГц
Битовая глубина : 16 бит
Метод сжатия : С потерями
Размер потока : 127 Мбайт (9%)
Выравнивание : Соединение по промежуткам
Продолжительность промежутка : 32 мс. (0,80 видеокадр)


picpicpicpicpic
Для увеличения картинки щелкните мышкой по превью


Этот торрент недоступен для скачивания без регистрации, однако доступен по публичной magnet-ссылке (источники с публичных трекеров). Перед использованием ссылки прочтите, пожалуйста Пользовательское соглашение, а также как можно дольше оставайтесь на раздаче! Для того, чтобы скачать сам торрент-файл (который видит больше источников), а также для того, чтобы поблагодарить релизера, вам необходимо зарегистрироваться. Если регистрироваться лень - вы можете также попробовать скачать релиз по нашим партнерским ссылкам ниже.

[underverse.su].t47122.torrent
Трекер: Зарегистрирован   [ 07.12.2014 15:13 ]  

Статус: проверено (by Ведьмочка at 07.12.2014 15:18)
Поблагодарили: 2 человека
Тип торрента: публичный - доступные источники с открытых трекеров: 
Размер: 2,74 GB (занимает 0,62 DVDR, для записи нужно 1 болванка DVDR/RW)
 
 
Похожие темы
Форум Тема Автор Торрент Отв. Посл. сооб.
xUSSR сериалы Братские узы / Серии: 1-4 из 4 (Владимир Харченко-Куликовский) [2014 г., Мелодрама, SATRip] Ведьмочка
15 | 2

1 | 560

4

06.12.2014 15:54

xUSSR сериалы [BD / Remux / BDRip / WEB-DL / HDTV 1080/720р] Братские узы / Серии: 1-2 из 2 (Владимир Харченко-Куликовский) [2014 г., Мелодрама, HDTV 1080p] Ведьмочка
1 | 0

0 | 657

2

07.12.2014 14:20

T xUSSR сериалы [BD / Remux / BDRip / WEB-DL / HDTV 1080/720р] Братские узы / Серии: 1 из 2 (Владимир Харченко-Куликовский) [2014 г., Мелодрама, HDTVRip 720p] Ведьмочка
1 | 0

0 | 641

0

07.12.2014 14:24


Яндекс.Метрика powered by Sphinx


В Н И М А Н И Е
Сайт не распространяет и не хранит электронные версии произведений, а лишь бесплатно и без коммерческой выгоды (не требуя взамен платы,
SMS и т.д.) предоставляет доступ к создаваемому пользователями каталогу ссылок на торрент-файлы, которые содержат только списки хеш-сумм.
Убедительная просьба с жалобами обращаться напрямую к пользователю, разместившему торрент файл.

Вверх