Loading...
Error

Слишком красивые, чтобы быть честными / Trop jolies pour etre honnetes (Ришар Бальдуччи) [1972 г., Комедия, Криминал, DVDRip] MVO (RUS) + Original (FRA)

Статистика раздачи
Размер:  1,46 GB   |    Зарегистрирован:  1 год 11 месяцев   |    Скачан:  5 раз

Полного источника не было: 10 месяцев

Сидов:  0  |  0 KB/s  ]   Личеров:  0  |  0 KB/s  ]

* - сиды/пиры с внешних источников

   
 
Автор Сообщение

Ведьмочка Пол:Жен

07-Дек-2014 12:41

Слишком красивые, чтобы быть честными / Trop jolies pour être honnêtes
«Four Girls Who Can Cater To Every Man's Wildest Desires!»


Страна: Испания , Италия , Франция
Год выпуска: 1972
Жанр: Комедия, Криминал
Продолжительность: 01:32:23
Режиссёр: Ришар Бальдуччи
В ролях: Бернадетт Лафон, Элизабет Винер, Джейн Биркин, Серж Гензбур, Эмма Коэн, Карло Джуффре, Анри Вирложё, Макс Монтавон, Раймон Мёнье, Альфредо Майо, Роберто Камардьель
Сюжет фильма:
Три девушки — Марина (модель), Христина (психолог), Фридерик (дочь начальника Департамента Общественных Работ) снимают квартиру на юге Франции в Ницце, а четвёртая Бернардет (уборщица) присматривает за порядком в ней. Жених Мартины, морской офицер, перед уходом в рейс дарит ей телескоп. С этого всё и начинается. Вместо того, чтобы смотреть на небо, девушки наводят телескоп на окна ближайшей виллы. Там они видят как два грабителя, с которыми они столкнулись накануне у входа в банк, прячут награбленное в сейф. У девушек возникает желание украсть украденное…

Озвучивание:
  • Профессиональный, Многоголосный, Русский
  • Оригинал, Французский


Качество видео: DVDRip
Формат: AVI

Видео: XviD, 704x432 (5:4 / 16:10), 25.000 fps, ~1857 Кбит/сек
Аудио #1: AC-3, 192 Кбит/сек, 2 Канала, 48.0 КГц
Аудио #2: AC-3, 192 Кбит/сек, 2 Канала, 48.0 КГц



Общее
Полное имя : \Trop.jolies.pour.etre.honnete_1972.DVDRip.avi
Формат : AVI
Формат/Информация : Audio Video Interleave
Размер файла : 1,46 Гбайт
Продолжительность : 1 ч. 32 м.
Общий поток : 2255 Кбит/сек
Режиссёр : BINMoVIE.ORG
Программа кодирования : VirtualDubMod 1.6.0.0 SURROUND (build 2560/release)
Библиотека кодирования : VirtualDubMod build 2560/release
Правообладатель : DVDRip by romaska

Видео
Идентификатор : 0
Формат : MPEG-4 Visual
Параметр BVOP формата : 1
Параметр QPel формата : Нет
Параметр GMC формата : Без точки перехода
Параметр матрицы формата : Default (H.263)
Режим смешивания : Сжатый битовый поток
Идентификатор кодека : DX50
Идентификатор кодека/Подсказка : DivX 5
Продолжительность : 1 ч. 32 м.
Битрейт : 1857 Кбит/сек
Ширина : 704 пикселя
Высота : 432 пикселя
Соотношение сторон : 5:4
Соотношение сторон в оригинале : 16:10
Частота кадров : 25,000 кадров/сек
Цветовое пространство : YUV
Субдискретизация насыщенности : 4:2:0
Битовая глубина : 8 бит
Тип развёртки : Прогрессивная
Метод сжатия : С потерями
Бит/(Пиксели*Кадры) : 0.244
Размер потока : 1,20 Гбайт (82%)
Библиотека кодирования : DivX 6.8.5 (UTC 2009-08-20)

Аудио #1
Идентификатор : 1
Формат : AC-3
Формат/Информация : Audio Coding 3
Расширение режима : CM (complete main)
Параметр Endianness формата : Big
Идентификатор кодека : 2000
Продолжительность : 1 ч. 32 м.
Вид битрейта : Постоянный
Битрейт : 192 Кбит/сек
Каналы : 2 канала
Расположение каналов : Front: L R
Частота : 48,0 КГц
Битовая глубина : 16 бит
Метод сжатия : С потерями
Размер потока : 127 Мбайт (9%)
Выравнивание : Разделение по промежуткам
Продолжительность промежутка : 40 мс. (1,00 видеокадр)
Время предзагрузки промежутка : 500 мс.

Аудио #2
Идентификатор : 2
Формат : AC-3
Формат/Информация : Audio Coding 3
Расширение режима : CM (complete main)
Параметр Endianness формата : Big
Идентификатор кодека : 2000
Продолжительность : 1 ч. 32 м.
Вид битрейта : Постоянный
Битрейт : 192 Кбит/сек
Каналы : 2 канала
Расположение каналов : Front: L R
Частота : 48,0 КГц
Битовая глубина : 16 бит
Метод сжатия : С потерями
Размер потока : 127 Мбайт (9%)
Выравнивание : Разделение по промежуткам
Продолжительность промежутка : 40 мс. (1,00 видеокадр)
Время предзагрузки промежутка : 500 мс.


picpicpicpicpic
Для увеличения картинки щелкните мышкой по превью


Этот торрент недоступен для скачивания без регистрации, однако доступен по публичной magnet-ссылке (источники с публичных трекеров). Перед использованием ссылки прочтите, пожалуйста Пользовательское соглашение, а также как можно дольше оставайтесь на раздаче! Для того, чтобы скачать сам торрент-файл (который видит больше источников), а также для того, чтобы поблагодарить релизера, вам необходимо зарегистрироваться. Если регистрироваться лень - вы можете также попробовать скачать релиз по нашим партнерским ссылкам ниже.

[underverse.su].t47119.torrent
Трекер: Зарегистрирован   [ 07.12.2014 12:41 ]  

Статус: проверено (by Ведьмочка at 07.12.2014 12:41)
Поблагодарили: пока никто не поблагодарил...
Тип торрента: публичный - доступные источники с открытых трекеров: 
Размер: 1,46 GB (занимает 1/3 DVDR, для записи нужно 1 болванка DVDR/RW)
 
 
Похожие темы
Форум Тема Автор Торрент Отв. Посл. сооб.
Зарубежное кино [DVDRip, Low-Res HDRip, и т.д.] Слишком крута для тебя / She's Out of My League ( Джим Филд Смит) [2010 г., комедия, HD DVDRip] niif111
1 | 0

2 | 1379

13

06.06.2010 10:18

Архив Слишком крута для тебя / She`s Out of My League (Джим Филд Смит) [2010 г., комедия, мелодрама., HD DVDRip] andrej-ku
0 | 0

4 | 814

5

17.02.2011 14:46

* Архив Слишком крута для тебя / She`s Out of My League (Джим Филд Смит) [2010 г., комедия, мелодрама, HDTVRip] Ollleg

10 | 1746

30.08.2010 00:06


Яндекс.Метрика powered by Sphinx


В Н И М А Н И Е
Сайт не распространяет и не хранит электронные версии произведений, а лишь бесплатно и без коммерческой выгоды (не требуя взамен платы,
SMS и т.д.) предоставляет доступ к создаваемому пользователями каталогу ссылок на торрент-файлы, которые содержат только списки хеш-сумм.
Убедительная просьба с жалобами обращаться напрямую к пользователю, разместившему торрент файл.

Вверх