Loading...
Error

Половинки невозможного / Серии: 1-4 из 4 (Юрий Лейзеров) [2014 г., Мелодрама, Детектив, SATRip]

Статистика раздачи
Размер:  2,33 GB   |    Зарегистрирован:  2 года 5 месяцев   |    Скачан:  22 раза

Полного источника не было: 9 месяцев

Сидов:  0  |  0 KB/s  ]   Личеров:  0  |  0 KB/s  ]

* - сиды/пиры с внешних источников

   
 
Автор Сообщение

Ведьмочка Пол:Жен

07-Дек-2014 11:02

Половинки невозможного


Страна: Россия
Год выпуска: 2014
Жанр: Мелодрама, Детектив
Продолжительность: ~00:44:00 (каждая серия)
Режиссёр: Юрий Лейзеров
В ролях: Екатерина Семёнова, Константин Соловьёв, Олег Андреев, Сергей Маркеев, Константин Анисимов, Владимир Шагин
Сюжет фильма:
Ирина Каменецкая владеет крупным бизнесом в Подмосковье. Из-за сложного характера и требовательности сотрудники не любят её и боятся. Сергей Воронцов, бывший офицер, начальник отдела грузовых перевозок, тоже с трудом мирится со стервозным характером начальницы. Но когда Ирину обвинят в убийстве мужа и попытаются отобрать бизнес те люди, которым она полностью доверяла, именно Сергей приходит ей на помощь…

Качество видео: SATRip
Формат: AVI

Видео: XviD, 720x400 (16:9), 25.000 fps, ~1800 Кбит/сек
Аудио: MP3, 128 Кбит/сек, 2 Канала, 48.0 КГц



Общее
Полное имя : \Polovinki.nevozmozhnogo.2014.SATRip\Polovinki.nevozmozhnogo.4.2014.SATRip.avi
Формат : AVI
Формат/Информация : Audio Video Interleave
Размер файла : 587 Мбайт
Продолжительность : 42 м.
Общий поток : 1937 Кбит/сек
Программа кодирования : VirtualDubMod 1.5.10.3 | www.virtualdub-fr.org || (build 2550/release)
Библиотека кодирования : VirtualDub build 32507/release

Видео
Идентификатор : 0
Формат : MPEG-4 Visual
Профиль формата : Advanced Simple@L5
Параметр BVOP формата : 2
Параметр QPel формата : Нет
Параметр GMC формата : Без точки перехода
Параметр матрицы формата : Default (MPEG)
Идентификатор кодека : XVID
Идентификатор кодека/Подсказка : XviD
Продолжительность : 42 м.
Битрейт : 1800 Кбит/сек
Ширина : 720 пикселей
Высота : 400 пикселей
Соотношение сторон : 16:9
Частота кадров : 25,000 кадров/сек
Цветовое пространство : YUV
Субдискретизация насыщенности : 4:2:0
Битовая глубина : 8 бит
Тип развёртки : Прогрессивная
Метод сжатия : С потерями
Бит/(Пиксели*Кадры) : 0.250
Размер потока : 545 Мбайт (93%)
Библиотека кодирования : XviD 1.2.1 (UTC 2008-12-04)

Аудио
Идентификатор : 1
Формат : MPEG Audio
Версия формата : Version 1
Профиль формата : Layer 3
Режим : Joint stereo
Расширение режима : MS Stereo
Идентификатор кодека : 55
Идентификатор кодека/Подсказка : MP3
Продолжительность : 42 м.
Вид битрейта : Постоянный
Битрейт : 128 Кбит/сек
Каналы : 2 канала
Частота : 48,0 КГц
Метод сжатия : С потерями
Размер потока : 38,8 Мбайт (7%)
Выравнивание : Соединение по промежуткам
Продолжительность промежутка : 40 мс. (1,00 видеокадр)
Время предзагрузки промежутка : 504 мс.
Библиотека кодирования : LAME3.99r
Настройки программы : -m j -V 4 -q 2 -lowpass 17 -b 128

picpicpicpicpic
Для увеличения картинки щелкните мышкой по превью


Этот торрент недоступен для скачивания без регистрации, однако доступен по публичной magnet-ссылке (источники с публичных трекеров). Перед использованием ссылки прочтите, пожалуйста Пользовательское соглашение, а также как можно дольше оставайтесь на раздаче! Для того, чтобы скачать сам торрент-файл (который видит больше источников), а также для того, чтобы поблагодарить релизера, вам необходимо зарегистрироваться. Если регистрироваться лень - вы можете также попробовать скачать релиз по нашим партнерским ссылкам ниже.

[underverse.su].t47118.torrent
Трекер: Зарегистрирован   [ 07.12.2014 12:16 ]  

Статус: проверено (by Ведьмочка at 07.12.2014 12:18)
Поблагодарили: 3 человека
Тип торрента: публичный - доступные источники с открытых трекеров: 
Размер: 2,33 GB (занимает 0,53 DVDR, для записи нужно 1 болванка DVDR/RW)
 
 


Последний раз редактировалось: Ведьмочка (07.12.2014 13:06), всего редактировалось 2 раз(а)

Ведьмочка Пол:Жен

07-Дек-2014 12:17

Добавлены 3-я и 4-я серии! Минисериал полный!
Всем приятного просмотра!

Яндекс.Метрика powered by Sphinx


В Н И М А Н И Е
Сайт не распространяет и не хранит электронные версии произведений, а лишь бесплатно и без коммерческой выгоды (не требуя взамен платы,
SMS и т.д.) предоставляет доступ к создаваемому пользователями каталогу ссылок на торрент-файлы, которые содержат только списки хеш-сумм.
Убедительная просьба с жалобами обращаться напрямую к пользователю, разместившему торрент файл.

Вверх