Loading...
Error

Стражи Галактики / Guardians of the Galaxy (Джеймс Ганн / James Gunn) [2014 г., фантастика, боевик, приключения, BDRip] Rus (Dub) HQ Underverse

Статистика раздачи
Размер:  2,17 GB   |    Зарегистрирован:  1 год 11 месяцев   |    Скачан:  104 раза

Полного источника не было: 2 часа 1 минута

Сидов:  0  |  0 KB/s  ]   Личеров:  0  |  0 KB/s  ]

* - сиды/пиры с внешних источников

   
 
Автор Сообщение

HQ Underverse 

07-Дек-2014 09:06

Стражи Галактики / Guardians of the Galaxy


Год выпуска: 2014
Жанр: фантастика, боевик, приключения
Страна: США , Великобритания
Режиссер: Джеймс Ганн / James Gunn
В ролях: Крис Пратт, Зои Салдана, Дэйв Батиста, Брэдли Купер, Вин Дизель, Ли Пейс, Майкл Рукер, Карен Гиллан, Гленн Клоуз, Джимон Хонсу
Сюжет фильма:
Отважному путешественнику Питеру Квиллу попадает в руки таинственный артефакт, принадлежащий могущественному и безжалостному злодею Ронану, строящему коварные планы по захвату Вселенной. Питер оказывается в центре межгалактической охоты, где жертва — он сам.

Единственный способ спасти свою жизнь — объединиться с четверкой нелюдимых изгоев: воинственным енотом по кличке Ракета, человекоподобным деревом Грутом, смертельно опасной Гаморой и одержимым жаждой мести Драксом, также известным как Разрушитель. Когда Квилл понимает, какой силой обладает украденный артефакт и какую опасность он представляет для вселенной, одиночка пойдет на все, чтобы сплотить случайных союзников для решающей битвы за судьбу галактики.

  • Мировая премьера: 21 июля 2014
  • Российская премьера: 31 июля 2014

/
Качество видео: BDRip

Продолжительность: 02:00:51
Формат: avi
Видео: XviD, 720x304, 2111 kbps
Аудио #1: русский, дублированный [лицензия], AC3 5.1, 448 kbps
Аудио #2: английский, оригинал, AC3 5.1, 448 kbps (отдельным файлом)
Аудио #3: украинский, дублированный, AC3 5.1, 448 kbps (отдельным файлом)
Субтитры #1: внешние, SRT, английский
Субтитры #2: внешние, SRT, английский SDH
Субтитры #3: внешние, SRT, русский
Субтитры #4: внешние, SRT, русский Forced

Семпл: http://multi-up.com/1018033

Релиз группы:

Код:

General
Complete name                    : D:\Video\Movies\Releases\Guardians.of.the.Galaxy.2014.BDRip.XviD.AC3.Rus.D.HQ.Underverse.avi
Format                           : AVI
Format/Info                      : Audio Video Interleave
Format profile                   : OpenDML
File size                        : 2.17 GiB
Duration                         : 2h 0mn
Overall bit rate                 : 2 572 Kbps
Writing application              : VirtualDubMod 1.5.10.3 | www.virtualdub-fr.org || (build 2550/release)
Writing library                  : VirtualDubMod build 2550/release

Video
ID                               : 0
Format                           : MPEG-4 Visual
Format profile                   : Streaming Video@L1
Format settings, BVOP            : Yes
Format settings, QPel            : No
Format settings, GMC             : No warppoints
Format settings, Matrix          : Custom
Codec ID                         : XVID
Codec ID/Hint                    : XviD
Duration                         : 2h 0mn
Bit rate                         : 2 112 Kbps
Width                            : 720 pixels
Height                           : 304 pixels
Display aspect ratio             : 2.35
Frame rate                       : 23.976 fps
Resolution                       : 24 bits
Colorimetry                      : 4:2:0
Scan type                        : Progressive
Bits/(Pixel*Frame)               : 0.402
Stream size                      : 1.78 GiB (82%)
Writing library                  : XviD 64

Audio
ID                               : 1
Format                           : AC-3
Format/Info                      : Audio Coding 3
Codec ID                         : 2000
Duration                         : 2h 0mn
Bit rate mode                    : Constant
Bit rate                         : 448 Kbps
Channel(s)                       : 6 channels
Channel positions                : Front: L C R, Surround: L R, LFE
Sampling rate                    : 48.0 KHz
Stream size                      : 387 MiB (17%)
Alignment                        : Split accross interleaves
Interleave, duration             : 42 ms (1.00 video frame)
Interleave, preload duration     : 500 ms
Title                            : Russian Dub

General
Complete name                    : D:\Video\Movies\Releases\Guardians.of.the.Galaxy.2014.BDRip.XviD.AC3.Rus.D.HQ.Underverse.Eng.ac3
Format                           : AC-3
Format/Info                      : Audio Coding 3
File size                        : 387 MiB
Duration                         : 2h 0mn
Overall bit rate                 : 448 Kbps

Audio
Format                           : AC-3
Format/Info                      : Audio Coding 3
Duration                         : 2h 0mn
Bit rate mode                    : Constant
Bit rate                         : 448 Kbps
Channel(s)                       : 6 channels
Channel positions                : Front: L C R, Surround: L R, LFE
Sampling rate                    : 48.0 KHz
Stream size                      : 387 MiB (100%)

General
Complete name                    : D:\Video\Movies\Releases\Guardians.of.the.Galaxy.2014.BDRip.XviD.AC3.Rus.D.HQ.Underverse.Ukr.ac3
Format                           : AC-3
Format/Info                      : Audio Coding 3
File size                        : 388 MiB
Duration                         : 2h 1mn
Overall bit rate                 : 448 Kbps

Audio
Format                           : AC-3
Format/Info                      : Audio Coding 3
Duration                         : 2h 1mn
Bit rate mode                    : Constant
Bit rate                         : 448 Kbps
Channel(s)                       : 6 channels
Channel positions                : Front: L C R, Surround: L R, LFE
Sampling rate                    : 48.0 KHz
Stream size                      : 388 MiB (100%)

picpicpicpic
Для увеличения картинки щелкните мышкой по превью

Этот торрент недоступен для скачивания без регистрации, однако доступен по публичной magnet-ссылке (источники с публичных трекеров). Перед использованием ссылки прочтите, пожалуйста Пользовательское соглашение, а также как можно дольше оставайтесь на раздаче! Для того, чтобы скачать сам торрент-файл (который видит больше источников), а также для того, чтобы поблагодарить релизера, вам необходимо зарегистрироваться. Если регистрироваться лень - вы можете также попробовать скачать релиз по нашим партнерским ссылкам ниже.

[underverse.su].t47117.torrent
Трекер: Зарегистрирован   [ 07.12.2014 09:18 ]  

Статус: проверено (by Паукан at 08.12.2014 10:48)
Поблагодарили: 1 человек
Тип торрента: публичный - доступные источники с открытых трекеров: 
Размер: 2,17 GB (занимает 1/2 DVDR, для записи нужно 1 болванка DVDR/RW)
 
 
Похожие темы
Форум Тема Автор Торрент Отв. Посл. сооб.
T Зарубежное кино [DVDRip, Low-Res HDRip, и т.д.] Стражи Галактики / Guardians of the Galaxy (Джеймс Ганн) [2014 г., Фантастика,Боевик,Приключения , DVDRip] DUB (RUS) |Чистый звук| viktor.r-79
2 | 0

0 | 2063

147

10.11.2014 11:12

T Зарубежное кино [DVDRip, Low-Res HDRip, и т.д.] Стражи Галактики / Guardians of the Galaxy (Джеймс Ганн) [2014 г., Фантастика, Боевик, Приключения, HDRip] Dub (RUS) Чистый звук Ведьмочка
0 | 0

1 | 767

34

23.11.2014 17:25

T Зарубежное кино [DVDRip, Low-Res HDRip, и т.д.] Стражи Галактики / Guardians of the Galaxy (Джеймс Ганн / James Gunn) [2014 г., фантастика, боевик, приключения, HDRip) Dub [iTunes] 90ytr90
22 | 0

0 | 1559

54

18.11.2014 18:20

Зарубежное кино [DVDRip, Low-Res HDRip, и т.д.] Стражи Галактики / Guardians of the Galaxy (Джеймс Ганн / James Gunn) [2014 г., фантастика, боевик, приключения, BDRip-AVC] Dub + Original (Eng) + Sub (Rus, Eng) 90ytr90
1 | 0

0 | 447

12

20.11.2014 08:51

Зарубежное кино [DVDRip, Low-Res HDRip, и т.д.] Стражи Галактики / Guardians of the Galaxy (Джеймс Ганн / James Gunn) [2014 г., фантастика, боевик, приключения, BDRip] Dub 90ytr90
8 | 0

0 | 768

35

20.11.2014 09:31

# Зарубежное кино [DVDRip, Low-Res HDRip, и т.д.] Стражи Галактики / Guardians of the Galaxy (Джеймс Ганн / James Gunn) [2014 г., фантастика, боевик, приключения, BDRip-AVC] [IMAX] Dub + Original (Eng) + Subs 90ytr90
3 | 0

0 | 594

17

22.11.2014 14:28

Зарубежное кино [DVDRip, Low-Res HDRip, и т.д.] Стражи Галактики / Guardians of the Galaxy (Джеймс Ганн / James Gunn) [2014 г., фантастика, боевик, приключения, HDRip] [IMAX] Dub 90ytr90
3 | 0

0 | 498

20

22.11.2014 17:27

Зарубежное кино [HDDVDRip / BDRip / WEB-DL / HDTV 1080/720р] Стражи Галактики / Guardians of the Galaxy (Джеймс Ганн / James Gunn) [2014 г., фантастика, боевик, приключения, BDRip 720p] Dub + Original (Eng) + Comments + Sub (Rus, Eng) 90ytr90
1 | 1

0 | 626

15

20.11.2014 09:15

Зарубежное кино [HDDVDRip / BDRip / WEB-DL / HDTV 1080/720р] Стражи Галактики / Guardians of the Galaxy (Джеймс Ганн / James Gunn) [2014 г., фантастика, боевик, приключения, BDRip 1080p] Dub + Original (Eng) + Comments + Sub (Rus, Eng) 90ytr90
2 | 0

0 | 569

40

20.11.2014 09:21

Зарубежное кино [HDDVDRip / BDRip / WEB-DL / HDTV 1080/720р] Стражи Галактики / Guardians of the Galaxy (Джеймс Ганн / James Gunn) [2014 г., фантастика, боевик, приключения, BDRip 1080p] Dub + Sub (Rus, Eng) 90ytr90
7 | 0

0 | 659

47

20.11.2014 11:00


Яндекс.Метрика powered by Sphinx


В Н И М А Н И Е
Сайт не распространяет и не хранит электронные версии произведений, а лишь бесплатно и без коммерческой выгоды (не требуя взамен платы,
SMS и т.д.) предоставляет доступ к создаваемому пользователями каталогу ссылок на торрент-файлы, которые содержат только списки хеш-сумм.
Убедительная просьба с жалобами обращаться напрямую к пользователю, разместившему торрент файл.

Вверх