Loading...
Error

Племяшка / Серии: 1-4 из 4 (Александр Итыгилов мл.) [2014 г., Мелодрама, Детектив, WEB-DLRip]

Статистика раздачи
Размер:  2,09 GB   |    Зарегистрирован:  1 год 11 месяцев   |    Скачан:  12 раз

Полного источника не было: 3 месяца 23 дня

Сидов:  0  |  0 KB/s  ]   Личеров:  0  |  0 KB/s  ]

* - сиды/пиры с внешних источников

   
 
Автор Сообщение

Ведьмочка Пол:Жен

07-Дек-2014 07:08

Племяшка
«Найти, чтобы вернуть»


Страна: Россия
Год выпуска: 2014
Жанр: Мелодрама, Детектив
Продолжительность: ~00:42:30 (каждая серия)
Режиссёр: Александр Итыгилов мл.
В ролях: Анатолий Котенёв, Анна Легчилова, Евгений Пронин, Виктор Рябов, Анастасия Сердюк, Ольга Матешко, Дарья Плахтий, Михаил Пшеничный, Елена Мисюра, Фёдор Гуринец, Мария Серова, Никита Пархоменко, Дария Боцманова, Николай Карцев, Валентина Пугачёва, Саак Дурян, Виктор Швец, Андрей Дебрин
Сюжет фильма:
Фильм о событии, перевернувшем благополучную жизнь семьи Шалимовых: крупного бизнесмена и чиновника Юрия, его жены Людмилы, сына Дмитрия и дочки Татьяны. Некогда Шалимовы-старшие цинично отвергли невесту сына — провинциальную девушку Юлю, уготовив ему в жены Олю Гладышеву, дочь друзей и компаньонов. Спешный отъезд Юли, ожидавшей, как оказалось, ребенка от Шалимова-младшего, перевернул и поломал жизнь семьи, перечеркнув все планы Диминых родителей. Не смирившись с потерей любимой, Дима поехал на поиски сбежавшей девушки, и вскоре погиб в автомобильной аварии. Людмила Шалимова пережила сына всего на год, скончавшись от рака. Подкосило случившееся и Юрия Шалимова, но он продолжил работу, и максимально постарался оградить от потрясений 15-летнюю на тот момент Таню, учившуюся в Англии. И вот, по прошествии семи лет с тех роковых событий, Шалимов попадает в больницу и понимает, что дни его, возможно, уже сочтены. Спешно вызванную из Англии Таню, перспективного дизайнера одежды, отец просит об одолжении. Точнее, это просьба, которая может оказаться судьбоносной для некогда мощной семьи Шалимовых. Таня должна отыскать Юлю и её ребенка, продолжение погибшего Димки, продолжение рода! Юрий Шалимов даже не знает, кто у него родился 7 лет назад, внук или внучка. Таня начинает поиски «племяшки». Она не знает, что, чуя слабость одряхлевшего льва Шалимова, множество стервятников уже готовы разодрать его империю на части, и ни Таня, ни таинственный малолетний «наследник» им не нужны…

Качество видео: WEB-DLRip
Формат: AVI

Видео: XviD, 720x400 (16:9), 25.000 fps, ~1550 Кбит/сек
Аудио: MP3, 128 Кбит/сек, 2 Канала, 44.1 КГц



Общее
Полное имя : \Plemyashka.2014.WEB-DLRip.tahiy\04.Plemyashka.2014.tahiy.avi
Формат : AVI
Формат/Информация : Audio Video Interleave
Размер файла : 542 Мбайт
Продолжительность : 44 м.
Общий поток : 1720 Кбит/сек
Название фильма : Plemyashka.2014.tahiy
Программа кодирования : VirtualDubMod 1.5.10.3 | www.virtualdub-fr.org || (build 2550/release)

Видео
Идентификатор : 0
Формат : MPEG-4 Visual
Профиль формата : Advanced Simple@L5
Параметр BVOP формата : 1
Параметр QPel формата : Нет
Параметр GMC формата : Без точки перехода
Параметр матрицы формата : Default (MPEG)
Идентификатор кодека : XVID
Идентификатор кодека/Подсказка : XviD
Продолжительность : 44 м.
Битрейт : 1582 Кбит/сек
Ширина : 720 пикселей
Высота : 400 пикселей
Соотношение сторон : 16:9
Частота кадров : 25,000 кадров/сек
Цветовое пространство : YUV
Субдискретизация насыщенности : 4:2:0
Битовая глубина : 8 бит
Тип развёртки : Прогрессивная
Метод сжатия : С потерями
Бит/(Пиксели*Кадры) : 0.220
Размер потока : 499 Мбайт (92%)
Библиотека кодирования : XviD 1.2.1 (UTC 2008-12-04)

Аудио
Идентификатор : 1
Формат : MPEG Audio
Версия формата : Version 1
Профиль формата : Layer 3
Режим : Joint stereo
Идентификатор кодека : 55
Идентификатор кодека/Подсказка : MP3
Продолжительность : 44 м.
Вид битрейта : Постоянный
Битрейт : 128 Кбит/сек
Каналы : 2 канала
Частота : 44,1 КГц
Метод сжатия : С потерями
Размер потока : 40,4 Мбайт (7%)
Выравнивание : Разделение по промежуткам
Продолжительность промежутка : 40 мс. (1,00 видеокадр)
Время предзагрузки промежутка : 500 мс.
Библиотека кодирования : LAME3.99r
Настройки программы : -m j -V 4 -q 2 -lowpass 17 -b 128


picpicpicpicpic
Для увеличения картинки щелкните мышкой по превью


Этот торрент недоступен для скачивания без регистрации, однако доступен по публичной magnet-ссылке (источники с публичных трекеров). Перед использованием ссылки прочтите, пожалуйста Пользовательское соглашение, а также как можно дольше оставайтесь на раздаче! Для того, чтобы скачать сам торрент-файл (который видит больше источников), а также для того, чтобы поблагодарить релизера, вам необходимо зарегистрироваться. Если регистрироваться лень - вы можете также попробовать скачать релиз по нашим партнерским ссылкам ниже.

[underverse.su].t47115.torrent
Трекер: Зарегистрирован   [ 07.12.2014 07:08 ]  

Статус: проверено (by Ведьмочка at 07.12.2014 07:11)
Поблагодарили: пока никто не поблагодарил...
Тип торрента: публичный - доступные источники с открытых трекеров: 
Размер: 2,09 GB (занимает 0,48 DVDR, для записи нужно 1 болванка DVDR/RW)
 
 
Похожие темы
Форум Тема Автор Торрент Отв. Посл. сооб.
xUSSR сериалы [BD / Remux / BDRip / WEB-DL / HDTV 1080/720р] Племяшка / Серии: 1-4 из 4 (Александр Итыгилов мл.) [2014 г., Мелодрама, Детектив, WEB-DL 1080p] Ведьмочка
1 | 0

0 | 848

6

07.12.2014 06:56

xUSSR сериалы [BD / Remux / BDRip / WEB-DL / HDTV 1080/720р] Племяшка / Серии: 1-4 из 4 (Александр Итыгилов мл.) [2014 г., Мелодрама, Детектив, WEB-DL 720p] Ведьмочка
0 | 1

0 | 538

8

07.12.2014 07:02


Яндекс.Метрика powered by Sphinx


В Н И М А Н И Е
Сайт не распространяет и не хранит электронные версии произведений, а лишь бесплатно и без коммерческой выгоды (не требуя взамен платы,
SMS и т.д.) предоставляет доступ к создаваемому пользователями каталогу ссылок на торрент-файлы, которые содержат только списки хеш-сумм.
Убедительная просьба с жалобами обращаться напрямую к пользователю, разместившему торрент файл.

Вверх