Loading...
Error

Дальше живите сами / This Is Where I Leave You (Шон Леви) [2014 г., Драма, Комедия, HDRip-AVC] MVO (RUS, Лицензия) + Original (ENG) + Subs (ENG)

Статистика раздачи
Размер:  1,82 GB   |    Зарегистрирован:  1 год 11 месяцев   |    Скачан:  9 раз

Полного источника не было: 1 год 7 месяцев

Сидов:  0  |  0 KB/s  ]   Личеров:  0  |  0 KB/s  ]

* - сиды/пиры с внешних источников

   
 
Автор Сообщение

Ведьмочка Пол:Жен

07-Дек-2014 06:02

Дальше живите сами / This Is Where I Leave You
«Welcome Home. Get Uncomfortable»


Страна: США
Год выпуска: 2014
Жанр: Драма, Комедия
Продолжительность: 01:43:18
Режиссёр: Шон Леви
В ролях: Джейсон Бейтмен, Тина Фей, Адам Драйвер, Роуз Бирн, Кори Столл, Кэтрин Хан, Конни Бриттон, Тимоти Олифант, Дэкс Шепард, Джейн Фонда
Сюжет фильма:
Еврейская семья, которая не особо привыкла соблюдать традиции своей веры, вынуждена выполнить последнее желание своего отца — им нужно будет провести вместе период траура, целую неделю, и решить свои проблемы.

Озвучивание:
  • Профессиональный, Многоголосный, Русский [Лицензия]
  • Оригинал, Английский


Качество видео: HDRip-AVC
Формат: MKV

Видео: AVC, 1024x424 (2.40:1), 23.976 fps, ~1682 Кбит/сек
Аудио #1: AC-3, 384 Кбит/сек, 6 Каналов, 48.0 КГц
Аудио #2: AC-3, 448 Кбит/сек, 6 Каналов, 48.0 КГц

Субтитры #1: UTF-8 [Английские, Полные]
Субтитры #2: UTF-8 [Английские, SDH]

Rip by:



Общее
Уникальный идентификатор : 181027591977273312113091673642436629499 (0x8830A5613C187F26AA5161273BD793FB)
Полное имя : \This.is.where.i.leave.you.2014.P.HDRip.AVC.ExKinoRay.mkv
Формат : Matroska
Версия формата : Version 2
Размер файла : 1,82 Гбайт
Продолжительность : 1 ч. 43 м.
Общий поток : 2518 Кбит/сек
Название фильма : This Is Where I Leave You 2014 from ExKinoRay
Дата кодирования : UTC 2014-12-06 16:29:48
Программа кодирования : mkvmerge v4.9.1 ('Ich will') built on Jul 11 2011 23:53:15
Библиотека кодирования : libebml v1.2.1 + libmatroska v1.1.1

Видео
Идентификатор : 1
Формат : AVC
Формат/Информация : Advanced Video Codec
Профиль формата : High@L4.1
Параметр CABAC формата : Да
Параметр ReFrames формата : 9 кадров
Идентификатор кодека : V_MPEG4/ISO/AVC
Продолжительность : 1 ч. 43 м.
Битрейт : 1682 Кбит/сек
Ширина : 1024 пикселя
Высота : 424 пикселя
Соотношение сторон : 2,40:1
Режим частоты кадров : Постоянный
Частота кадров : 23,976 кадра/сек
Цветовое пространство : YUV
Субдискретизация насыщенности : 4:2:0
Битовая глубина : 8 бит
Тип развёртки : Прогрессивная
Бит/(Пиксели*Кадры) : 0.162
Размер потока : 1,18 Гбайт (65%)
Заголовок : Enigma-Vladislav71
Библиотека кодирования : x264 core 133 r2334 a3ac64b
Настройки программы : cabac=1 / ref=9 / deblock=1:-2:-2 / analyse=0x3:0x113 / me=umh / subme=11 / psy=1 / psy_rd=1.00:0.15 / mixed_ref=1 / me_range=32 / chroma_me=1 / trellis=2 / 8x8dct=1 / cqm=0 / deadzone=21,11 / fast_pskip=0 / chroma_qp_offset=-3 / threads=12 / lookahead_threads=2 / sliced_threads=0 / nr=0 / decimate=0 / interlaced=0 / bluray_compat=0 / constrained_intra=0 / bframes=9 / b_pyramid=2 / b_adapt=2 / b_bias=0 / direct=3 / weightb=1 / open_gop=0 / weightp=2 / keyint=240 / keyint_min=23 / scenecut=40 / intra_refresh=0 / rc=2pass / mbtree=0 / bitrate=1682 / ratetol=1.0 / qcomp=0.60 / qpmin=0 / qpmax=69 / qpstep=4 / cplxblur=20.0 / qblur=0.5 / ip_ratio=1.40 / pb_ratio=1.30 / aq=1:1.00
Default : Да
Forced : Нет
Основные цвета : BT.709
Характеристики трансфера : BT.709
Коэффициенты матрицы : BT.709
colour_range : Limited

Аудио #1
Идентификатор : 2
Формат : AC-3
Формат/Информация : Audio Coding 3
Расширение режима : CM (complete main)
Параметр Endianness формата : Big
Идентификатор кодека : A_AC3
Продолжительность : 1 ч. 43 м.
Вид битрейта : Постоянный
Битрейт : 384 Кбит/сек
Каналы : 6 каналов
Расположение каналов : Front: L C R, Side: L R, LFE
Частота : 48,0 КГц
Битовая глубина : 16 бит
Метод сжатия : С потерями
Размер потока : 284 Мбайт (15%)
Заголовок : Профессиональный (многоголосый) [лицензия]
Язык : Russian
Default : Да
Forced : Нет

Аудио #2
Идентификатор : 3
Формат : AC-3
Формат/Информация : Audio Coding 3
Расширение режима : CM (complete main)
Параметр Endianness формата : Big
Идентификатор кодека : A_AC3
Продолжительность : 1 ч. 43 м.
Вид битрейта : Постоянный
Битрейт : 448 Кбит/сек
Каналы : 6 каналов
Расположение каналов : Front: L C R, Side: L R, LFE
Частота : 48,0 КГц
Битовая глубина : 16 бит
Метод сжатия : С потерями
Размер потока : 331 Мбайт (18%)
Язык : English
Default : Нет
Forced : Нет

Текст #1
Идентификатор : 4
Формат : UTF-8
Идентификатор кодека : S_TEXT/UTF8
Идентификатор кодека/Информация : UTF-8 Plain Text
Заголовок : Full
Язык : English
Default : Нет
Forced : Нет

Текст #2
Идентификатор : 5
Формат : UTF-8
Идентификатор кодека : S_TEXT/UTF8
Идентификатор кодека/Информация : UTF-8 Plain Text
Заголовок : SHD
Язык : English
Default : Нет
Forced : Нет

Меню
00:00:00.000 : en:00:00:00.000
00:09:09.716 : en:00:09:09.716
00:21:54.605 : en:00:21:54.605
00:30:50.348 : en:00:30:50.348
00:39:28.866 : en:00:39:28.866
00:50:38.244 : en:00:50:38.244
01:01:14.254 : en:01:01:14.254
01:09:18.321 : en:01:09:18.321
01:20:55.434 : en:01:20:55.434
01:29:12.514 : en:01:29:12.514
01:40:07.335 : en:01:40:07.335


picpicpicpicpic
Для увеличения картинки щелкните мышкой по превью


Этот торрент недоступен для скачивания без регистрации, однако доступен по публичной magnet-ссылке (источники с публичных трекеров). Перед использованием ссылки прочтите, пожалуйста Пользовательское соглашение, а также как можно дольше оставайтесь на раздаче! Для того, чтобы скачать сам торрент-файл (который видит больше источников), а также для того, чтобы поблагодарить релизера, вам необходимо зарегистрироваться. Если регистрироваться лень - вы можете также попробовать скачать релиз по нашим партнерским ссылкам ниже.

[underverse.su].t47111.torrent
Трекер: Зарегистрирован   [ 07.12.2014 06:02 ]  

Статус: проверено (by Ведьмочка at 07.12.2014 06:06)
Поблагодарили: пока никто не поблагодарил...
Тип торрента: публичный - доступные источники с открытых трекеров: 
Размер: 1,82 GB (занимает 0,42 DVDR, для записи нужно 1 болванка DVDR/RW)
 
 
Похожие темы
Форум Тема Автор Торрент Отв. Посл. сооб.
Зарубежное кино [DVDRip, Low-Res HDRip, и т.д.] Дальше живите сами / This Is Where I Leave You (Шон Леви) [2014 г., Драма, Комедия, HDRip] MVO (RUS, Лицензия) Ведьмочка
7 | 0

0 | 425

42

06.12.2014 07:14

Зарубежное кино [DVDRip, Low-Res HDRip, и т.д.] Дальше живите сами / This Is Where I Leave You (Шон Леви) [2014 г., Драма, Комедия, HDRip] MVO (RUS, Лицензия) + Original (ENG) Ведьмочка
0 | 0

0 | 293

2

06.12.2014 11:46

Зарубежное кино [HDDVDRip / BDRip / WEB-DL / HDTV 1080/720р] Дальше живите сами / This Is Where I Leave You (Шон Леви) [2014 г., Драма, Комедия, BDRip 720p] MVO (RUS, Лицензия) + Original (ENG) + Subs (ENG) Ведьмочка
30 | 0

0 | 421

19

06.12.2014 07:43

Зарубежное кино [HDDVDRip / BDRip / WEB-DL / HDTV 1080/720р] Дальше живите сами / This Is Where I Leave You (Шон Леви) [2014 г., Драма, Комедия, BDRip 1080p] MVO (RUS, Лицензия) + Original (ENG) + Subs (ENG) Ведьмочка
0 | 0

0 | 378

8

06.12.2014 12:35


Яндекс.Метрика powered by Sphinx


В Н И М А Н И Е
Сайт не распространяет и не хранит электронные версии произведений, а лишь бесплатно и без коммерческой выгоды (не требуя взамен платы,
SMS и т.д.) предоставляет доступ к создаваемому пользователями каталогу ссылок на торрент-файлы, которые содержат только списки хеш-сумм.
Убедительная просьба с жалобами обращаться напрямую к пользователю, разместившему торрент файл.

Вверх