Loading...
Error

Братские узы / Серии: 1-4 из 4 (Владимир Харченко-Куликовский) [2014 г., Мелодрама, SATRip]

Статистика раздачи
Размер:  2,51 GB   |    Зарегистрирован:  2 года   |    Скачан:  4 раза

Полного источника не было: 3 месяца 20 дней

Сидов:  0  |  0 KB/s  ]   Личеров:  0  |  0 KB/s  ]

* - сиды/пиры с внешних источников

   
 
Автор Сообщение

Ведьмочка Пол:Жен

06-Дек-2014 12:21

Братские узы


Страна: Россия , Украина
Год выпуска: 2014
Жанр: Мелодрама
Продолжительность: ~00:50:00 (каждая серия)
Режиссёр: Владимир Харченко-Куликовский
В ролях: Люба Баханкова, Иван Жидков, Денис Косяков, Дарья Иванова, Наталия Денисенко, Инна Мирошниченко, Олег Треповский, Маргарита Бурковская, Сергей Калантай, Фатима Горбенко
Сюжет фильма:
Что важнее — любовь или призвание? Ксюше не нужно выбирать. Ведь у нее есть искренне любящий Саша и любимая работа — в кардиологии Московской больницы. Более того, у нее, простой девушки из Саратова, есть воплощенная мечта — она студентка московского медицинского института.

Но ее счастье не длится вечно. Умирает Ксюшин папа. Когда Ксюша уезжает на похороны, подруга Яна и начальница Калинина распускают сплетни, что Ксюша — любовница главврача Слепенкова. И самое страшное, что этим наветам верит Саша…


Качество видео: SATRip
Формат: AVI

Видео: XviD, 720x400 (16:9), 25.000 fps, ~1800 Кбит/сек
Аудио: MP3, 128 Кбит/сек, 2 Канала, 48.0 КГц



Общее
Полное имя : \Братские узы\Bratskie.uzy.04.SATRip.avi
Формат : AVI
Формат/Информация : Audio Video Interleave
Размер файла : 639 Мбайт
Продолжительность : 46 м.
Общий поток : 1938 Кбит/сек
Программа кодирования : VirtualDubMod 1.5.10.3 | www.virtualdub-fr.org || (build 2550/release)
Библиотека кодирования : VirtualDubMod build 2550/release

Видео
Идентификатор : 0
Формат : MPEG-4 Visual
Профиль формата : Advanced Simple@L5
Параметр BVOP формата : 2
Параметр QPel формата : Нет
Параметр GMC формата : Без точки перехода
Параметр матрицы формата : Default (H.263)
Идентификатор кодека : XVID
Идентификатор кодека/Подсказка : XviD
Продолжительность : 46 м.
Битрейт : 1800 Кбит/сек
Ширина : 720 пикселей
Высота : 400 пикселей
Соотношение сторон : 16:9
Частота кадров : 25,000 кадров/сек
Цветовое пространство : YUV
Субдискретизация насыщенности : 4:2:0
Битовая глубина : 8 бит
Тип развёртки : Прогрессивная
Метод сжатия : С потерями
Бит/(Пиксели*Кадры) : 0.250
Размер потока : 593 Мбайт (93%)
Библиотека кодирования : XviD 1.2.1 (UTC 2008-12-04)

Аудио
Идентификатор : 1
Формат : MPEG Audio
Версия формата : Version 1
Профиль формата : Layer 3
Режим : Joint stereo
Расширение режима : MS Stereo
Идентификатор кодека : 55
Идентификатор кодека/Подсказка : MP3
Продолжительность : 46 м.
Вид битрейта : Постоянный
Битрейт : 128 Кбит/сек
Каналы : 2 канала
Частота : 48,0 КГц
Метод сжатия : С потерями
Размер потока : 42,2 Мбайт (7%)
Выравнивание : Соединение по промежуткам
Продолжительность промежутка : 40 мс. (1,00 видеокадр)
Время предзагрузки промежутка : 504 мс.
Библиотека кодирования : LAME3.99r
Настройки программы : -m j -V 4 -q 9 -lowpass 17 -b 128


picpicpicpicpic
Для увеличения картинки щелкните мышкой по превью


Этот торрент недоступен для скачивания без регистрации, однако доступен по публичной magnet-ссылке (источники с публичных трекеров). Перед использованием ссылки прочтите, пожалуйста Пользовательское соглашение, а также как можно дольше оставайтесь на раздаче! Для того, чтобы скачать сам торрент-файл (который видит больше источников), а также для того, чтобы поблагодарить релизера, вам необходимо зарегистрироваться. Если регистрироваться лень - вы можете также попробовать скачать релиз по нашим партнерским ссылкам ниже.

[underverse.su].t47099.torrent
Трекер: Зарегистрирован   [ 06.12.2014 15:50 ]  

Статус: проверено (by Ведьмочка at 06.12.2014 15:50)
Поблагодарили: 1 человек
Тип торрента: публичный - доступные источники с открытых трекеров: 
Размер: 2,51 GB (занимает 0,57 DVDR, для записи нужно 1 болванка DVDR/RW)
 
 
Похожие темы
Форум Тема Автор Торрент Отв. Посл. сооб.
xUSSR сериалы Братские узы / Серии: 1-2 из 2 (Владимир Харченко-Куликовский) [2014 г., Мелодрама, HDTVRip] Ведьмочка
6 | 0

0 | 574

6

07.12.2014 15:13

xUSSR сериалы [BD / Remux / BDRip / WEB-DL / HDTV 1080/720р] Братские узы / Серии: 1-2 из 2 (Владимир Харченко-Куликовский) [2014 г., Мелодрама, HDTV 1080p] Ведьмочка
1 | 0

0 | 620

2

07.12.2014 14:20

T xUSSR сериалы [BD / Remux / BDRip / WEB-DL / HDTV 1080/720р] Братские узы / Серии: 1 из 2 (Владимир Харченко-Куликовский) [2014 г., Мелодрама, HDTVRip 720p] Ведьмочка
1 | 0

0 | 600

0

07.12.2014 14:24



Последний раз редактировалось: Ведьмочка (07.12.2014 07:09), всего редактировалось 4 раз(а)

Ведьмочка Пол:Жен

06-Дек-2014 15:54

Добавлена 4-я серия! Минисериал полный!
Всем приятного просмотра!

Яндекс.Метрика powered by Sphinx


В Н И М А Н И Е
Сайт не распространяет и не хранит электронные версии произведений, а лишь бесплатно и без коммерческой выгоды (не требуя взамен платы,
SMS и т.д.) предоставляет доступ к создаваемому пользователями каталогу ссылок на торрент-файлы, которые содержат только списки хеш-сумм.
Убедительная просьба с жалобами обращаться напрямую к пользователю, разместившему торрент файл.

Вверх