Loading...
Error

Другой берег (Владимир Басов, Ольга Басова) [2014 г., Мелодрама, HDTVRip]

Статистика раздачи
Размер:  1,37 GB   |    Зарегистрирован:  2 года   |    Скачан:  22 раза

Полного источника не было: 4 месяца 2 дня

Сидов:  0  |  0 KB/s  ]   Личеров:  0  |  0 KB/s  ]

* - сиды/пиры с внешних источников

   
 
Автор Сообщение

Ведьмочка Пол:Жен

06-Дек-2014 10:46

Другой берег


Страна: Россия
Год выпуска: 2014
Жанр: Мелодрама
Продолжительность: 01:35:39
Режиссёр: Владимир Басов, Ольга Басова
В ролях: Леонид Архангельский, Мария Аниканова, Егор Баринов, Андрей Казаков, Полина Филоненко, Анна Скиданова, Никита Пикалов
Сюжет фильма:
Блистательная Ксения Конюхова, выпускница консерватории и МГИМО, отзывается от карьеры дипломата и возвращается в родной городок из-за болезни отца. Там ее жизнь круто изменяется: она начинает свой бизнес, выходит замуж и становится одной из самых преуспевающих женщин. У нее есть все: семья, верная подруга, большой дом, деньги. Ксении завидуют. Многим кажется, что она рождена для счастья, везения и радостей. Всё эти иллюзии разрушаются в самый неподходящий момент: на свадьбе ее дочери. Ксения исчезает…

Качество видео: HDTVRip
Формат: AVI

Видео: XviD, 720x400 (16:9), 25.000 fps, ~1847 Кбит/сек
Аудио: AC-3, 192 Кбит/сек, 2 Канала, 48.0 КГц

Rip by:



Общее
Полное имя : \Другой.берег.2014.HDTVRip.Files-x.avi
Формат : AVI
Формат/Информация : Audio Video Interleave
Профиль формата : OpenDML
Размер файла : 1,37 Гбайт
Продолжительность : 1 ч. 35 м.
Общий поток : 2051 Кбит/сек
Программа кодирования : Lavf53.19.0

Видео
Идентификатор : 0
Формат : MPEG-4 Visual
Профиль формата : Advanced Simple@L5
Параметр BVOP формата : 1
Параметр QPel формата : Нет
Параметр GMC формата : Без точки перехода
Параметр матрицы формата : Выборочная
Идентификатор кодека : XVID
Идентификатор кодека/Подсказка : XviD
Продолжительность : 1 ч. 35 м.
Битрейт : 1847 Кбит/сек
Ширина : 720 пикселей
Высота : 400 пикселей
Соотношение сторон : 16:9
Частота кадров : 25,000 кадров/сек
Цветовое пространство : YUV
Субдискретизация насыщенности : 4:2:0
Битовая глубина : 8 бит
Тип развёртки : Прогрессивная
Метод сжатия : С потерями
Бит/(Пиксели*Кадры) : 0.257
Размер потока : 1,23 Гбайт (90%)
Библиотека кодирования : XviD 73

Аудио
Идентификатор : 1
Формат : AC-3
Формат/Информация : Audio Coding 3
Расширение режима : CM (complete main)
Параметр Endianness формата : Big
Идентификатор кодека : 2000
Продолжительность : 1 ч. 35 м.
Вид битрейта : Постоянный
Битрейт : 192 Кбит/сек
Каналы : 2 канала
Расположение каналов : Front: L R
Частота : 48,0 КГц
Битовая глубина : 16 бит
Метод сжатия : С потерями
Размер потока : 131 Мбайт (9%)
Выравнивание : Соединение по промежуткам
Продолжительность промежутка : 32 мс. (0,80 видеокадр)


picpicpicpicpic
Для увеличения картинки щелкните мышкой по превью


Этот торрент недоступен для скачивания без регистрации, однако доступен по публичной magnet-ссылке (источники с публичных трекеров). Перед использованием ссылки прочтите, пожалуйста Пользовательское соглашение, а также как можно дольше оставайтесь на раздаче! Для того, чтобы скачать сам торрент-файл (который видит больше источников), а также для того, чтобы поблагодарить релизера, вам необходимо зарегистрироваться. Если регистрироваться лень - вы можете также попробовать скачать релиз по нашим партнерским ссылкам ниже.

[underverse.su].t47080.torrent
Трекер: Зарегистрирован   [ 06.12.2014 10:46 ]  

Статус: проверено (by Ведьмочка at 06.12.2014 10:46)
Поблагодарили: 1 человек
Тип торрента: публичный - доступные источники с открытых трекеров: 
Размер: 1,37 GB (занимает 0,31 DVDR, для записи нужно 1 болванка DVDR/RW)
 
 
Похожие темы
Форум Тема Автор Торрент Отв. Посл. сооб.
Наше кино [HDDVDRip / BDRip / WEB-DL / HDTV 1080/720р] Другой берег (Владимир Басов, Ольга Басова) [2014 г., Мелодрама, HDTVRip 720p] Ведьмочка
8 | 1

0 | 448

4

06.12.2014 10:50

Наше кино [HDDVDRip / BDRip / WEB-DL / HDTV 1080/720р] Другой берег (Владимир Басов, Ольга Басова) [2014 г., Мелодрама, HDTV 1080p] Ведьмочка
0 | 0

0 | 601

10

06.12.2014 10:58


Яндекс.Метрика powered by Sphinx


В Н И М А Н И Е
Сайт не распространяет и не хранит электронные версии произведений, а лишь бесплатно и без коммерческой выгоды (не требуя взамен платы,
SMS и т.д.) предоставляет доступ к создаваемому пользователями каталогу ссылок на торрент-файлы, которые содержат только списки хеш-сумм.
Убедительная просьба с жалобами обращаться напрямую к пользователю, разместившему торрент файл.

Вверх