Loading...
Error

Обитель проклятых / Eliza Graves (Брэд Андерсон) [2014 г., Триллер, HDRip-AVC] Dub (RUS, Лицензия) + Original (ENG) + Subs (ENG)

Статистика раздачи
Размер:  1,76 GB   |    Зарегистрирован:  1 год 11 месяцев   |    Скачан:  9 раз

Полного источника не было: 7 дней

Сидов:  0  |  0 KB/s  ]   Личеров:  0  |  0 KB/s  ]

* - сиды/пиры с внешних источников

   
 
Автор Сообщение

Ведьмочка Пол:Жен

06-Дек-2014 08:39

Обитель проклятых / Eliza Graves
«No one is what they seem»


Страна: США
Год выпуска: 2014
Жанр: Триллер
Продолжительность: 01:52:40
Режиссёр: Брэд Андерсон
В ролях: Кейт Бекинсейл, Джим Стёрджесс, Бен Кингсли, Дэвид Тьюлис, Майкл Кейн, Брендан Глисон, Джейсон Флеминг, Софи Кеннеди Кларк, Шинед Кьюсак, Гийом Делони
Сюжет фильма:
Молодой медицинский работник Эдвард устраивается работать в психиатрическую лечебницу. Вскоре становится известно об исчезновении одного из лечащих врачей психушки. Эдвард обнаруживает, что его похитили пациенты больницы, а вскоре и вся психушка оказывается захвачена ими…

Озвучивание:
  • Дублированный, Русский [Лицензия]
  • Оригинал, Английский


Качество видео: HDRip-AVC
Формат: MKV

Видео: AVC, 1024x424 (2.40:1), 23.976 fps, ~1470 Кбит/сек
Аудио #1: AC-3, 384 Кбит/сек, 6 Каналов, 48.0 КГц
Аудио #2: AC-3, 384 Кбит/сек, 6 Каналов, 48.0 КГц

Субтитры #1: UTF-8 [Английские, Полные]
Субтитры #2: UTF-8 [Английские, Цветные]



Общее
Уникальный идентификатор : 227954958421860677204347395039846697612 (0xAB7E872D9AC6AB76B50548E3BF9B8A8C)
Полное имя : \Stonehearst.Asylum.2014.x264.D.HDRip.(AVC).NovaLan.mkv
Формат : Matroska
Версия формата : Version 4 / Version 2
Размер файла : 1,76 Гбайт
Продолжительность : 1 ч. 52 м.
Общий поток : 2237 Кбит/сек
Название фильма : Stonehearst.Asylum.2014.x264.D.HDRip.(AVC).NovaLan
Дата кодирования : UTC 2014-12-05 19:46:09
Программа кодирования : mkvmerge v7.3.0 ('Nouages') 64bit built on Oct 22 2014 18:53:34
Библиотека кодирования : libebml v1.3.0 + libmatroska v1.4.1
_STATISTICS_WRITING_APP : mkvmerge v7.3.0 ('Nouages') 64bit built on Oct 22 2014 18:53:34
_STATISTICS_WRITING_DATE_UTC : 2014-12-05 19:46:09
_STATISTICS_TAGS : BPS DURATION NUMBER_OF_FRAMES NUMBER_OF_BYTES
DURATION : 01:52:40.000000000
NUMBER_OF_FRAMES : 211250
NUMBER_OF_BYTES : 324480000

Видео
Идентификатор : 1
Формат : AVC
Формат/Информация : Advanced Video Codec
Профиль формата : High@L4.1
Параметр CABAC формата : Да
Параметр ReFrames формата : 9 кадров
Идентификатор кодека : V_MPEG4/ISO/AVC
Продолжительность : 1 ч. 52 м.
Битрейт : 1470 Кбит/сек
Ширина : 1024 пикселя
Высота : 424 пикселя
Соотношение сторон : 2,40:1
Режим частоты кадров : Постоянный
Частота кадров : 23,976 кадра/сек
Цветовое пространство : YUV
Субдискретизация насыщенности : 4:2:0
Битовая глубина : 8 бит
Тип развёртки : Прогрессивная
Бит/(Пиксели*Кадры) : 0.141
Размер потока : 1,12 Гбайт (64%)
Заголовок : Stonehearst.Asylum.2014.x264.D.HDRip.(AVC).by.StarbirS
Библиотека кодирования : x264 core 142 r2431 ac76440
Настройки программы : cabac=1 / ref=9 / deblock=1:-2:-2 / analyse=0x3:0x113 / me=umh / subme=11 / psy=1 / psy_rd=1.00:0.20 / mixed_ref=1 / me_range=48 / chroma_me=1 / trellis=2 / 8x8dct=1 / cqm=0 / deadzone=21,11 / fast_pskip=0 / chroma_qp_offset=-3 / threads=12 / lookahead_threads=4 / sliced_threads=0 / nr=0 / decimate=0 / interlaced=0 / bluray_compat=0 / constrained_intra=0 / bframes=8 / b_pyramid=2 / b_adapt=2 / b_bias=0 / direct=3 / weightb=1 / open_gop=0 / weightp=2 / keyint=240 / keyint_min=23 / scenecut=40 / intra_refresh=0 / rc=2pass / mbtree=0 / bitrate=1470 / ratetol=1.0 / qcomp=0.65 / qpmin=0 / qpmax=69 / qpstep=4 / cplxblur=20.0 / qblur=0.5 / ip_ratio=1.40 / pb_ratio=1.30 / aq=2:0.90
Язык : English
Default : Да
Forced : Нет
_STATISTICS_WRITING_APP : mkvmerge v7.3.0 ('Nouages') 64bit built on Oct 22 2014 18:53:34
_STATISTICS_WRITING_DATE_UTC : 2014-12-05 19:46:09
_STATISTICS_TAGS : BPS DURATION NUMBER_OF_FRAMES NUMBER_OF_BYTES
DURATION : 01:52:40.265000000
NUMBER_OF_FRAMES : 162084
NUMBER_OF_BYTES : 1239318070

Аудио #1
Идентификатор : 2
Формат : AC-3
Формат/Информация : Audio Coding 3
Расширение режима : CM (complete main)
Параметр Endianness формата : Big
Идентификатор кодека : A_AC3
Продолжительность : 1 ч. 52 м.
Вид битрейта : Постоянный
Битрейт : 384 Кбит/сек
Каналы : 6 каналов
Расположение каналов : Front: L C R, Side: L R, LFE
Частота : 48,0 КГц
Битовая глубина : 16 бит
Метод сжатия : С потерями
Размер потока : 309 Мбайт (17%)
Заголовок : Дублированный (BD RUS)
Язык : Russian
Default : Да
Forced : Нет

Аудио #2
Идентификатор : 3
Формат : AC-3
Формат/Информация : Audio Coding 3
Расширение режима : CM (complete main)
Параметр Endianness формата : Big
Идентификатор кодека : A_AC3
Продолжительность : 1 ч. 52 м.
Вид битрейта : Постоянный
Битрейт : 384 Кбит/сек
Каналы : 6 каналов
Расположение каналов : Front: L C R, Side: L R, LFE
Частота : 48,0 КГц
Битовая глубина : 16 бит
Метод сжатия : С потерями
Размер потока : 309 Мбайт (17%)
Язык : English
Default : Нет
Forced : Нет

Текст #1
Идентификатор : 4
Формат : UTF-8
Идентификатор кодека : S_TEXT/UTF8
Идентификатор кодека/Информация : UTF-8 Plain Text
Язык : English
Default : Да
Forced : Нет

Текст #2
Идентификатор : 5
Формат : UTF-8
Идентификатор кодека : S_TEXT/UTF8
Идентификатор кодека/Информация : UTF-8 Plain Text
Заголовок : color
Язык : English
Default : Нет
Forced : Нет

Меню
00:00:00.000 : en:Chapter 01
00:09:14.888 : en:Chapter 02
00:17:51.362 : en:Chapter 03
00:27:37.906 : en:Chapter 04
00:37:54.731 : en:Chapter 05
00:45:40.696 : en:Chapter 06
00:54:59.922 : en:Chapter 07
01:03:44.029 : en:Chapter 08
01:12:48.406 : en:Chapter 09
01:22:12.427 : en:Chapter 10
01:30:24.252 : en:Chapter 11
01:48:23.122 : en:Chapter 12


picpicpicpicpic
Для увеличения картинки щелкните мышкой по превью


Этот торрент недоступен для скачивания без регистрации, однако доступен по публичной magnet-ссылке (источники с публичных трекеров). Перед использованием ссылки прочтите, пожалуйста Пользовательское соглашение, а также как можно дольше оставайтесь на раздаче! Для того, чтобы скачать сам торрент-файл (который видит больше источников), а также для того, чтобы поблагодарить релизера, вам необходимо зарегистрироваться. Если регистрироваться лень - вы можете также попробовать скачать релиз по нашим партнерским ссылкам ниже.

[underverse.su].t47068.torrent
Трекер: Зарегистрирован   [ 06.12.2014 08:39 ]  

Статус: проверено (by Ведьмочка at 06.12.2014 10:04)
Поблагодарили: пока никто не поблагодарил...
Тип торрента: публичный - доступные источники с открытых трекеров: 
Размер: 1,76 GB (занимает 0,4 DVDR, для записи нужно 1 болванка DVDR/RW)
 
 
Похожие темы
Форум Тема Автор Торрент Отв. Посл. сооб.
Зарубежное кино [DVDRip, Low-Res HDRip, и т.д.] Обитель проклятых / Eliza Graves (Брэд Андерсон) [2014 г., Триллер, BDRip-AVC] Dub (RUS, Лицензия) + Original (ENG) + Subs (ENG) Ведьмочка
1 | 0

0 | 331

11

06.12.2014 09:46

Зарубежное кино [DVDRip, Low-Res HDRip, и т.д.] Обитель проклятых / Eliza Graves (Брэд Андерсон) [2014 г., Триллер, HDRip] Dub (RUS, Лицензия) + Original (ENG) Ведьмочка
0 | 0

0 | 384

3

06.12.2014 10:10

Зарубежное кино [DVDRip, Low-Res HDRip, и т.д.] Обитель проклятых / Eliza Graves (Брэд Андерсон) [2014 г., Триллер, HDRip] Dub (RUS, Лицензия) Ведьмочка
23 | 0

1 | 358

21

02.01.2015 13:59

Зарубежное кино [DVDRip, Low-Res HDRip, и т.д.] Обитель проклятых / Eliza Graves (Брэд Андерсон) [2014 г., триллер, экранизация, HDRip] AVO (Гаврилов) 90ytr90
45 | 2

0 | 298

5

10.02.2015 18:56

Зарубежное кино [DVDRip, Low-Res HDRip, и т.д.] Обитель проклятых / Eliza Graves (Брэд Андерсон) [2014 г., триллер, BDRip-AVC] [US Transfer] Dub + VO (Замез) + Original (Eng) + Sub (Eng) 90ytr90
2 | 0

0 | 254

1

11.02.2015 06:35

Зарубежное кино [DVDRip, Low-Res HDRip, и т.д.] Обитель проклятых / Eliza Graves (Брэд Андерсон) [2014 г., триллер, BDRip-AVC] Dub 90ytr90
37 | 3

0 | 273

3

11.02.2015 06:54

Зарубежное кино [HDDVDRip / BDRip / WEB-DL / HDTV 1080/720р] Обитель проклятых / Eliza Graves (Брэд Андерсон) [2014 г., Триллер, BDRip 1080p] Dub (RUS, Лицензия) + Original (ENG) + Subs (ENG) Ведьмочка
26 | 1

0 | 309

5

06.12.2014 05:52

Зарубежное кино [HDDVDRip / BDRip / WEB-DL / HDTV 1080/720р] Обитель проклятых / Eliza Graves (Брэд Андерсон) [2014 г., Триллер, BDRip 720p] Dub (RUS, Лицензия) + Original (ENG) + Subs (ENG) Ведьмочка
69 | 6

0 | 366

7

06.12.2014 06:34

Зарубежное кино [HDDVDRip / BDRip / WEB-DL / HDTV 1080/720р] Обитель проклятых / Eliza Graves (Брэд Андерсон) [2014 г., Триллер, BDRip 720p] Dub (RUS, Лицензия) / 60 FPS Ведьмочка
0 | 0

0 | 546

10

08.12.2014 10:54



Последний раз редактировалось: Ведьмочка (06.12.2014 10:07), всего редактировалось 1 раз

Ведьмочка Пол:Жен

06-Дек-2014 09:14

Пользователям: просьба отписаться, идёт ли закачка.

90ytr90 

06-Дек-2014 13:00

Идет.

Ведьмочка Пол:Жен

06-Дек-2014 13:43

Спасибо за отзывчивость! :)

Яндекс.Метрика powered by Sphinx


В Н И М А Н И Е
Сайт не распространяет и не хранит электронные версии произведений, а лишь бесплатно и без коммерческой выгоды (не требуя взамен платы,
SMS и т.д.) предоставляет доступ к создаваемому пользователями каталогу ссылок на торрент-файлы, которые содержат только списки хеш-сумм.
Убедительная просьба с жалобами обращаться напрямую к пользователю, разместившему торрент файл.

Вверх