Loading...
Error

Дальше живите сами / This Is Where I Leave You (Шон Леви) [2014 г., Драма, Комедия, HDRip] MVO (RUS, Лицензия)

Статистика раздачи
Размер:  1,37 GB   |    Зарегистрирован:  1 год 11 месяцев   |    Скачан:  42 раза

Полного источника не было: 6 месяцев

Сидов:  0  |  0 KB/s  ]   Личеров:  0  |  0 KB/s  ]

* - сиды/пиры с внешних источников

   
 
Автор Сообщение

Ведьмочка Пол:Жен

06-Дек-2014 07:14

Дальше живите сами / This Is Where I Leave You
«Welcome Home. Get Uncomfortable»


Страна: США
Год выпуска: 2014
Жанр: Драма, Комедия
Продолжительность: 01:43:18
Режиссёр: Шон Леви
В ролях: Джейсон Бейтмен, Тина Фей, Адам Драйвер, Роуз Бирн, Кори Столл, Кэтрин Хан, Конни Бриттон, Тимоти Олифант, Дэкс Шепард, Джейн Фонда
Сюжет фильма:
Еврейская семья, которая не особо привыкла соблюдать традиции своей веры, вынуждена выполнить последнее желание своего отца — им нужно будет провести вместе период траура, целую неделю, и решить свои проблемы.

Озвучивание:
  • Профессиональный, Многоголосный, Русский [Лицензия]


Качество видео: HDRip
Формат: AVI

Видео: XviD, 720x304 (2.35:1), 23.976 fps, ~1501 Кбит/сек
Аудио: AC-3, 384 Кбит/сек, 6 Каналов, 48.0 КГц



Общее
Полное имя : \Dalshe.zhivite.sami.2014.P.HDRip.1400Mb.avi
Формат : AVI
Формат/Информация : Audio Video Interleave
Размер файла : 1,37 Гбайт
Продолжительность : 1 ч. 43 м.
Общий поток : 1894 Кбит/сек
Программа кодирования : VirtualDubMod 1.5.10.3 | www.virtualdub-fr.org || (build 2550/release)
Библиотека кодирования : VirtualDubMod build 2550/release

Видео
Идентификатор : 0
Формат : MPEG-4 Visual
Профиль формата : Advanced Simple@L5
Параметр BVOP формата : 2
Параметр QPel формата : Нет
Параметр GMC формата : Без точки перехода
Параметр матрицы формата : Default (MPEG)
Идентификатор кодека : XVID
Идентификатор кодека/Подсказка : XviD
Продолжительность : 1 ч. 43 м.
Битрейт : 1501 Кбит/сек
Ширина : 720 пикселей
Высота : 304 пикселя
Соотношение сторон : 2,35:1
Частота кадров : 23,976 кадра/сек
Цветовое пространство : YUV
Субдискретизация насыщенности : 4:2:0
Битовая глубина : 8 бит
Тип развёртки : Прогрессивная
Метод сжатия : С потерями
Бит/(Пиксели*Кадры) : 0.286
Размер потока : 1,08 Гбайт (79%)
Библиотека кодирования : XviD 1.2.1 (UTC 2008-12-04)

Аудио
Идентификатор : 1
Формат : AC-3
Формат/Информация : Audio Coding 3
Расширение режима : CM (complete main)
Параметр Endianness формата : Big
Идентификатор кодека : 2000
Продолжительность : 1 ч. 43 м.
Вид битрейта : Постоянный
Битрейт : 384 Кбит/сек
Каналы : 6 каналов
Расположение каналов : Front: L C R, Side: L R, LFE
Частота : 48,0 КГц
Битовая глубина : 16 бит
Метод сжатия : С потерями
Размер потока : 284 Мбайт (20%)
Выравнивание : Разделение по промежуткам
Продолжительность промежутка : 42 мс. (1,00 видеокадр)
Время предзагрузки промежутка : 500 мс.


picpicpicpicpic
Для увеличения картинки щелкните мышкой по превью


Этот торрент недоступен для скачивания без регистрации, однако доступен по публичной magnet-ссылке (источники с публичных трекеров). Перед использованием ссылки прочтите, пожалуйста Пользовательское соглашение, а также как можно дольше оставайтесь на раздаче! Для того, чтобы скачать сам торрент-файл (который видит больше источников), а также для того, чтобы поблагодарить релизера, вам необходимо зарегистрироваться. Если регистрироваться лень - вы можете также попробовать скачать релиз по нашим партнерским ссылкам ниже.

[underverse.su].t47066.torrent
Трекер: Зарегистрирован   [ 06.12.2014 07:14 ]  

Статус: проверено (by Ведьмочка at 06.12.2014 07:16)
Поблагодарили: 1 человек
Тип торрента: публичный - доступные источники с открытых трекеров: 
Размер: 1,37 GB (занимает 0,31 DVDR, для записи нужно 1 болванка DVDR/RW)
 
 
Похожие темы
Форум Тема Автор Торрент Отв. Посл. сооб.
Зарубежное кино [DVDRip, Low-Res HDRip, и т.д.] Дальше живите сами / This Is Where I Leave You (Шон Леви) [2014 г., Драма, Комедия, HDRip] MVO (RUS, Лицензия) + Original (ENG) Ведьмочка
0 | 0

0 | 294

2

06.12.2014 11:46

Зарубежное кино [DVDRip, Low-Res HDRip, и т.д.] Дальше живите сами / This Is Where I Leave You (Шон Леви) [2014 г., Драма, Комедия, HDRip-AVC] MVO (RUS, Лицензия) + Original (ENG) + Subs (ENG) Ведьмочка
60 | 0

0 | 386

9

07.12.2014 06:02

Зарубежное кино [HDDVDRip / BDRip / WEB-DL / HDTV 1080/720р] Дальше живите сами / This Is Where I Leave You (Шон Леви) [2014 г., Драма, Комедия, BDRip 720p] MVO (RUS, Лицензия) + Original (ENG) + Subs (ENG) Ведьмочка
30 | 0

0 | 421

19

06.12.2014 07:43

Зарубежное кино [HDDVDRip / BDRip / WEB-DL / HDTV 1080/720р] Дальше живите сами / This Is Where I Leave You (Шон Леви) [2014 г., Драма, Комедия, BDRip 1080p] MVO (RUS, Лицензия) + Original (ENG) + Subs (ENG) Ведьмочка
0 | 0

0 | 378

8

06.12.2014 12:35


Яндекс.Метрика powered by Sphinx


В Н И М А Н И Е
Сайт не распространяет и не хранит электронные версии произведений, а лишь бесплатно и без коммерческой выгоды (не требуя взамен платы,
SMS и т.д.) предоставляет доступ к создаваемому пользователями каталогу ссылок на торрент-файлы, которые содержат только списки хеш-сумм.
Убедительная просьба с жалобами обращаться напрямую к пользователю, разместившему торрент файл.

Вверх