Loading...
Error

Возлюбленные / The One I Love (Чарли МакДауэлл) [2014 г., Драма, Мелодрама, Комедия, HDRip] VO (RUS, Lord32x)

Статистика раздачи
Размер:  1,47 GB   |    Зарегистрирован:  2 года 6 месяцев   |    Скачан:  54 раза

Полного источника не было: 1 год 1 месяц

Сидов:  0  |  0 KB/s  ]   Личеров:  0  |  0 KB/s  ]

* - сиды/пиры с внешних источников

   
 
Автор Сообщение

Ведьмочка Пол:Жен

05-Дек-2014 09:26

Возлюбленные / The One I Love


Страна: США
Год выпуска: 2014
Жанр: Драма, Мелодрама, Комедия
Продолжительность: 01:31:19
Режиссёр: Чарли МакДауэлл
В ролях: Марк Дюпласс, Элизабет Мосс, Тед Дэнсон, Киана Кейсон, Кейтлин Додсон, Лори Фаррар, Марли Мэтлин, Тим Реддикорд, Райан Педерсон, Брет Битс
Сюжет фильма:
Итан и Софи пытаются спасти свой разваливающийся брак при помощи психотерапевта. Когда его методы не срабатывают, он предлагает супругам последнее: отправиться на отдых в некое красивое уединенное место, обещая при этом почти стопроцентный результат. Оказавшись в уединении, Итан и Софи постепенно начинают замечать странные вещи…

Озвучивание:
  • Любительский, Одноголосный, Русский [Lord32x]

Качество видео: HDRip
Формат: AVI

Видео: XviD, 720x304 (2.35:1), 23.976 fps, ~1904 Кбит/сек
Аудио: AC-3, 384 Кбит/сек, 6 Каналов, 48.0 КГц



Общее
Полное имя : \The.One.I.Love.2014.1500MB.avi
Формат : AVI
Формат/Информация : Audio Video Interleave
Размер файла : 1,47 Гбайт
Продолжительность : 1 ч. 31 м.
Общий поток : 2297 Кбит/сек
Программа кодирования : VirtualDubMod 1.5.10.3 | www.virtualdub-fr.org || (build 2550/release)
Библиотека кодирования : VirtualDubMod build 2550/release

Видео
Идентификатор : 0
Формат : MPEG-4 Visual
Профиль формата : Advanced Simple@L5
Параметр BVOP формата : 1
Параметр QPel формата : Нет
Параметр GMC формата : Без точки перехода
Параметр матрицы формата : Default (H.263)
Идентификатор кодека : XVID
Идентификатор кодека/Подсказка : XviD
Продолжительность : 1 ч. 31 м.
Битрейт : 1904 Кбит/сек
Ширина : 720 пикселей
Высота : 304 пикселя
Соотношение сторон : 2,35:1
Частота кадров : 23,976 кадра/сек
Цветовое пространство : YUV
Субдискретизация насыщенности : 4:2:0
Битовая глубина : 8 бит
Тип развёртки : Прогрессивная
Метод сжатия : С потерями
Бит/(Пиксели*Кадры) : 0.363
Размер потока : 1,21 Гбайт (83%)
Библиотека кодирования : XviD 1.2.1 (UTC 2008-12-04)

Аудио
Идентификатор : 1
Формат : AC-3
Формат/Информация : Audio Coding 3
Расширение режима : CM (complete main)
Параметр Endianness формата : Big
Идентификатор кодека : 2000
Продолжительность : 1 ч. 31 м.
Вид битрейта : Постоянный
Битрейт : 384 Кбит/сек
Каналы : 6 каналов
Расположение каналов : Front: L C R, Side: L R, LFE
Частота : 48,0 КГц
Битовая глубина : 16 бит
Метод сжатия : С потерями
Размер потока : 251 Мбайт (17%)
Выравнивание : Разделение по промежуткам
Продолжительность промежутка : 42 мс. (1,00 видеокадр)
Время предзагрузки промежутка : 500 мс.


picpicpicpicpic
Для увеличения картинки щелкните мышкой по превью

Этот торрент недоступен для скачивания без регистрации, однако доступен по публичной magnet-ссылке (источники с публичных трекеров). Перед использованием ссылки прочтите, пожалуйста Пользовательское соглашение, а также как можно дольше оставайтесь на раздаче! Для того, чтобы скачать сам торрент-файл (который видит больше источников), а также для того, чтобы поблагодарить релизера, вам необходимо зарегистрироваться. Если регистрироваться лень - вы можете также попробовать скачать релиз по нашим партнерским ссылкам ниже.

[underverse.su].t47025.torrent
Трекер: Зарегистрирован   [ 05.12.2014 09:26 ]  

Статус: проверено (by Ведьмочка at 05.12.2014 09:27)
Поблагодарили: 1 человек
Тип торрента: публичный - доступные источники с открытых трекеров: 
Размер: 1,47 GB (занимает 0,33 DVDR, для записи нужно 1 болванка DVDR/RW)
 
 
Похожие темы
Форум Тема Автор Торрент Отв. Посл. сооб.
Зарубежное кино [DVDRip, Low-Res HDRip, и т.д.] Возлюбленные / Les bien-aimes (Кристоф Оноре) [2011 г., драма, HDRip] Dub 90ytr90
1 | 1

0 | 289

4

19.12.2012 09:10

Зарубежное кино [DVDRip, Low-Res HDRip, и т.д.] Возлюбленные / Les bien-aimes (Кристоф Оноре) [2011 г., драма, HDRip] Dub 90ytr90
2 | 0

0 | 1191

15

19.12.2012 09:23


Яндекс.Метрика powered by Sphinx


В Н И М А Н И Е
Сайт не распространяет и не хранит электронные версии произведений, а лишь бесплатно и без коммерческой выгоды (не требуя взамен платы,
SMS и т.д.) предоставляет доступ к создаваемому пользователями каталогу ссылок на торрент-файлы, которые содержат только списки хеш-сумм.
Убедительная просьба с жалобами обращаться напрямую к пользователю, разместившему торрент файл.

Вверх