Loading...
Error

Я - Начало / I Origins (Майк Кэхилл) [2014 г., Фантастика, Драма, WEB-DLRip] VO (RUS, PashaUp)

Статистика раздачи
Размер:  1,45 GB   |    Зарегистрирован:  2 года   |    Скачан:  105 раз

Полного источника не было: 5 месяцев 8 дней

Сидов:  0  |  0 KB/s  ]   Личеров:  0  |  0 KB/s  ]

* - сиды/пиры с внешних источников

   
 
Автор Сообщение

Ведьмочка Пол:Жен

04-Дек-2014 19:59

Я - Начало / I Origins


Страна: США
Год выпуска: 2014
Жанр: Фантастика, Драма
Продолжительность: 01:48:07
Режиссёр: Майк Кэхилл
В ролях: Майкл Питт, Стивен Ян, Астрид Берже-Фрисби, Брит Марлинг, Дориен Маклоги, Чарльз В. Грэй, Джон Шиумо, Фараша Бэйлок, Ако, Кристофер Сантамария
Сюжет фильма:
Молекулярный биолог и его напарница по лаборатории делают потрясающее открытие, способное коренным образом изменить современное общество.

Озвучивание:
  • Любительский, Одноголосный, Русский [PashaUp]

Качество видео: WEB-DLRip
Формат: AVI

Видео: XviD, 720x304 (2.35:1), 23.976 fps, ~1529 Кбит/сек
Аудио: AC-3, 384 Кбит/сек, 6 Каналов, 48.0 КГц



Общее
Полное имя : \I.Origins.2014.L1.WEB-DLRip.avi
Формат : AVI
Формат/Информация : Audio Video Interleave
Размер файла : 1,45 Гбайт
Продолжительность : 1 ч. 48 м.
Общий поток : 1922 Кбит/сек
Программа кодирования : VirtualDubMod 1.5.10.3 | www.virtualdub-fr.org || (build 2550/release)
Библиотека кодирования : VirtualDubMod build 2550/release

Видео
Идентификатор : 0
Формат : MPEG-4 Visual
Профиль формата : Advanced Simple@L5
Параметр BVOP формата : 1
Параметр QPel формата : Нет
Параметр GMC формата : Без точки перехода
Параметр матрицы формата : Выборочная
Идентификатор кодека : XVID
Идентификатор кодека/Подсказка : XviD
Продолжительность : 1 ч. 48 м.
Битрейт : 1529 Кбит/сек
Ширина : 720 пикселей
Высота : 304 пикселя
Соотношение сторон : 2,35:1
Частота кадров : 23,976 кадра/сек
Цветовое пространство : YUV
Субдискретизация насыщенности : 4:2:0
Битовая глубина : 8 бит
Тип развёртки : Прогрессивная
Метод сжатия : С потерями
Бит/(Пиксели*Кадры) : 0.291
Размер потока : 1,15 Гбайт (80%)
Библиотека кодирования : XviD 73

Аудио
Идентификатор : 1
Формат : AC-3
Формат/Информация : Audio Coding 3
Расширение режима : CM (complete main)
Параметр Endianness формата : Big
Идентификатор кодека : 2000
Продолжительность : 1 ч. 48 м.
Вид битрейта : Постоянный
Битрейт : 384 Кбит/сек
Каналы : 6 каналов
Расположение каналов : Front: L C R, Side: L R, LFE
Частота : 48,0 КГц
Битовая глубина : 16 бит
Метод сжатия : С потерями
Размер потока : 297 Мбайт (20%)
Выравнивание : Разделение по промежуткам
Продолжительность промежутка : 42 мс. (1,00 видеокадр)
Время предзагрузки промежутка : 500 мс.


picpicpicpicpic
Для увеличения картинки щелкните мышкой по превью

Этот торрент недоступен для скачивания без регистрации, однако доступен по публичной magnet-ссылке (источники с публичных трекеров). Перед использованием ссылки прочтите, пожалуйста Пользовательское соглашение, а также как можно дольше оставайтесь на раздаче! Для того, чтобы скачать сам торрент-файл (который видит больше источников), а также для того, чтобы поблагодарить релизера, вам необходимо зарегистрироваться. Если регистрироваться лень - вы можете также попробовать скачать релиз по нашим партнерским ссылкам ниже.

[underverse.su].t47015.torrent
Трекер: Зарегистрирован   [ 04.12.2014 19:59 ]  

Статус: проверено (by Ведьмочка at 04.12.2014 20:11)
Поблагодарили: 3 человека
Тип торрента: публичный - доступные источники с открытых трекеров: 
Размер: 1,45 GB (занимает 1/3 DVDR, для записи нужно 1 болванка DVDR/RW)
 
 
Похожие темы
Форум Тема Автор Торрент Отв. Посл. сооб.
T Зарубежное кино [DVDRip, Low-Res HDRip, и т.д.] Я - Начало / I Origins (Майк Кэхилл) [2014 г., Фантастика, Драма, WEB-DLRip] MVO (RUS, iTunes Russia) Ведьмочка
23 | 1

0 | 732

58

09.12.2014 00:27

T Зарубежное кино [DVDRip, Low-Res HDRip, и т.д.] Я - Начало / I Origins (Майк Кэхилл) [2014 г., Фантастика, Драма, WEB-DLRip] MVO (RUS, iTunes Russia) + Original (ENG) Ведьмочка
46 | 0

0 | 852

66

09.12.2014 14:27

Зарубежное кино [HDDVDRip / BDRip / WEB-DL / HDTV 1080/720р] Я - Начало / I Origins (Майк Кэхилл) [2014 г., Фантастика, Драма, WEB-DL 720p] VO (RUS, PashaUp) + Original (ENG) + Subs (RUS, ENG, UKR) Ведьмочка
34 | 0

0 | 918

50

04.12.2014 19:53

T Зарубежное кино [HDDVDRip / BDRip / WEB-DL / HDTV 1080/720р] Я - Начало / I Origins (Майк Кэхилл) [2014 г., Фантастика, Драма, WEB-DL 720p] MVO (RUS, iTunes Russia) + Original (ENG) + Subs (RUS, ENG, UKR) Ведьмочка
32 | 1

0 | 599

23

09.12.2014 00:38

T Зарубежное кино [HDDVDRip / BDRip / WEB-DL / HDTV 1080/720р] Я - Начало / I Origins (Майк Кэхилл) [2014 г., Фантастика, Драма, WEB-DL 1080p] MVO (RUS, iTunes Russia) + Original (ENG) + Subs (RUS, ENG, UKR) Ведьмочка
64 | 1

0 | 632

40

09.12.2014 11:21


Яндекс.Метрика powered by Sphinx


В Н И М А Н И Е
Сайт не распространяет и не хранит электронные версии произведений, а лишь бесплатно и без коммерческой выгоды (не требуя взамен платы,
SMS и т.д.) предоставляет доступ к создаваемому пользователями каталогу ссылок на торрент-файлы, которые содержат только списки хеш-сумм.
Убедительная просьба с жалобами обращаться напрямую к пользователю, разместившему торрент файл.

Вверх