Loading...
Error

«Кодекс чести 7» / Серии: 1-32 [32] (Георгий Николаенко) [2014 г., боевик, SatRip]

Статистика раздачи
Размер:  19,01 GB   |    Зарегистрирован:  1 год 11 месяцев   |    Скачан:  9 раз

Полного источника не было: 8 месяцев

Сидов:  0  |  0 KB/s  ]   Личеров:  0  |  0 KB/s  ]

* - сиды/пиры с внешних источников

   
 
Автор Сообщение

nemos Пол:Муж

04-Дек-2014 16:17

«Кодекс чести 7»


Год выпуска: 2014
Жанр: боевик
Страна: Россия
Режиссер: Георгий Николаенко
В ролях: Игорь Лагутин (Сергей Пастухов), Игнат Акрачков (Трубач), Мария Аниканова, Григорий Антипенко, Мария Бортник (жена главного героя), Юрий Брешин, Альберт Буров (Блюмберг), Алексей Ванифатьев, Виктор Вержбицкий (Янсен), Вера Воронкова, Дмитрий Гусев, Олег Гущин (Волков)
Сюжет фильма:
Их было семеро, во время первой чеченской войны все они были членами одной из самых сильных диверсионно-разведывательных групп. Весной 1996 года их уволили из армии с формулировкой «за невыполнение боевого приказа». Настоящая же причина была в том, что приказ был изначально преступным. Семеро молодых офицеров (старшему, Доку, чуть больше тридцати пяти лет, остальным нет и тридцати), профессиональных диверсантов супер-класса, оказались вышвырнутыми в мирную жизнь. И каждый попытался в ней как-то устроится.
Капитан спецназа Пастухов пас коров в деревеньке Затопино, военный хирург Док работал санитаром на «скорой», Муха продавал в электричках газеты, а Артист безуспешно пытался пристроиться в каком-нибудь театре.
Так бы все и продолжалось, но некой спецслужбе, условно названной УПСМ (Управление по планированию специальных мероприятий), понадобились исполнители для операции, главным условием которой была конспиративность. Бывшая команда Сергея Пастухова отвечает всем требованиям. Так начинается сотрудничество наших героев с УПСМ. В рискованные дела вовлекают их и другие силы. Но они - не наемники, хотя в шутку и называют себя «солдатами удачи».
В новом сезоне «Кодекса чести» главных героев ждет множество сверхсложных заданий и неожиданных поворотов судьбы, ведь их считают особой группой, выполняющей задания повышенной сложности.
Наряду с быстрым решением запутанных преступных головоломок, бойцам постоянно приходится держать себя в тонусе. Так, Пастуху, Карасёву и Максу предстоит преследовать профессионального паркурщика, преодолевающего сложнейшие препятствия с неправдоподобной легкостью. А в другой истории их противником будет настоящий ниндзя.
Даже долгожданный отдых не обходится у ребят без погонь и драк: в одной из серий, проводя выходные на турбазе, они раскроют убийство десятилетней давности, а также вычислят интернет-преступников, создавших сайт, на котором в live-режиме казнят людей, избежавших наказания в прошлом.
Что касается личной жизни, то холостой красавчик Карасёв наконец-то встретит свою любовь. Правда, прежде ему придется столкнуться с бандитами в клоунских масках, захватившими бассейн с людьми. Будучи безоружным, Карасёв решится на хитроумный трюк, чтобы спасти людей. И он будет не единственным, кому предстоит взглянуть смерти в лицо.
Качество видео: SatRip

Продолжительность: 00:44:40 (Серия)
Формат: AVI
Видео: XviD, 720x448, 1800 kbps
Аудио: русский, MP3 2.0, 128 kbps

Код:

D:\раздача\Kodeks.chesti-7.SATRip\Kodeks.chesti.7-02.SATRip.avi
   General
      Complete name : D:\раздача\Kodeks.chesti-7.SATRip\Kodeks.chesti.7-02.SATRip.avi
      Format : AVI
      Format/Info : Audio Video Interleave
      File size : 619 MiB
      Duration : 44mn 40s
      Overall bit rate : 1 937 Kbps
      Writing library : VirtualDub build 32817/release
   Video #0
      ID : 0
      Format : MPEG-4 Visual
      Format profile : Advanced Simple@L5
      Format settings, BVOP : 2
      Format settings, QPel : No
      Format settings, GMC : No warppoints
      Format settings, Matrix : Default (MPEG)
      Codec ID : XVID
      Codec ID/Hint : XviD
      Duration : 44mn 40s
      Bit rate : 1 800 Kbps
      Width : 720 pixels
      Height : 448 pixels
      Display aspect ratio : 1.607
      Frame rate : 25.000 fps
      Color space : YUV
      Chroma subsampling : 4:2:0
      Bit depth : 8 bits
      Scan type : Progressive
      Compression mode : Lossy
      Bits/(Pixel*Frame) : 0.223
      Stream size : 575 MiB (93%)
      Writing library : XviD 1.2.1 (UTC 2008-12-04)
   Audio #1
      ID : 1
      Format : MPEG Audio
      Format version : Version 1
      Format profile : Layer 3
      Mode : Joint stereo
      Mode extension : MS Stereo
      Codec ID : 55
      Codec ID/Hint : MP3
      Duration : 44mn 40s
      Bit rate mode : Constant
      Bit rate : 128 Kbps
      Channel(s) : 2 channels
      Sampling rate : 48.0 KHz
      Compression mode : Lossy
      Stream size : 40.9 MiB (7%)
      Alignment : Split accross interleaves
      Interleave, duration : 40 ms (1.00 video frame)
      Interleave, preload duration : 500 ms
picpicpicpicpicpicpicpicpic
Для увеличения картинки щелкните мышкой по превью

Этот торрент недоступен для скачивания без регистрации, однако доступен по публичной magnet-ссылке (источники с публичных трекеров). Перед использованием ссылки прочтите, пожалуйста Пользовательское соглашение, а также как можно дольше оставайтесь на раздаче! Для того, чтобы скачать сам торрент-файл (который видит больше источников), а также для того, чтобы поблагодарить релизера, вам необходимо зарегистрироваться. Если регистрироваться лень - вы можете также попробовать скачать релиз по нашим партнерским ссылкам ниже.

[underverse.su].t47389.torrent
Трекер: Зарегистрирован   [ 15.12.2014 03:45 ]  

Статус: проверено (by nemos at 15.12.2014 03:45)
Поблагодарили: 3 человека
Тип торрента: публичный - доступные источники с открытых трекеров: 
Размер: 19,01 GB (занимает 4,34 DVDR, для записи нужно 5 болванок DVDR/RW)
 
 
Похожие темы
Форум Тема Автор Торрент Отв. Посл. сооб.
xUSSR сериалы «Кодекс чести 6» / Серии: 1-24 [24] (Мурад Алиев, Олег Штром) [2013 г., детектив, криминал, SATRip] nemos
0 | 0

1 | 1086

11

02.07.2013 02:37



Последний раз редактировалось: nemos (15.12.2014 03:48), всего редактировалось 8 раз(а)

nemos Пол:Муж

05-Дек-2014 17:36

Торр файл обновлён! 32 серии.

Яндекс.Метрика powered by Sphinx


В Н И М А Н И Е
Сайт не распространяет и не хранит электронные версии произведений, а лишь бесплатно и без коммерческой выгоды (не требуя взамен платы,
SMS и т.д.) предоставляет доступ к создаваемому пользователями каталогу ссылок на торрент-файлы, которые содержат только списки хеш-сумм.
Убедительная просьба с жалобами обращаться напрямую к пользователю, разместившему торрент файл.

Вверх