Loading...
Error

Дневник мамы первоклассника (Андрей Силкин) [2014 г., Детский, Мелодрама, Семейный, DVDRip-AVC]

Статистика раздачи
Размер:  1,37 GB   |    Зарегистрирован:  2 года   |    Скачан:  26 раз

Полного источника не было: 8 месяцев

Сидов:  0  |  0 KB/s  ]   Личеров:  0  |  0 KB/s  ]

* - сиды/пиры с внешних источников

   
 
Автор Сообщение

Ведьмочка Пол:Жен

04-Дек-2014 08:24

Дневник мамы первоклассника


Страна: Россия
Год выпуска: 2014
Жанр: Детский, Мелодрама, Семейный
Продолжительность: 01:18:12
Режиссёр: Андрей Силкин
В ролях: Светлана Ходченкова, Дмитрий Ендальцев, Дима Полунин, Елена Яковлева, Виктор Сухоруков, Галина Польских, Олеся Жураковская, Софья Мицкевич, Арсений Мурзин, Матвей Михалевич
Сюжет фильма:
События в картине разворачиваются в хронологическом порядке с первого родительского собрания до последнего учебного дня первоклассника, освещая самые яркие дни мальчика, его мамы и папы.

Семья Васи — главного героя картины — понимает, как беззаботно им раньше жилось и сколько проблем и тревог приносит школьная пора. За год перед Васей как будто в миниатюре разворачивается целая жизнь. Дружба, первая любовь, муки творчества, предательство, жизнь в коллективе, упорная работа, преодоление «препятствий» — вот что, буквально, как снежный ком, сваливается на голову маленького мальчика. Кто поддержит? Кто объяснит? Кто подскажет? Только единение семьи и школы может помочь ребенку правильно расставить акценты и справиться с трудностями, что в свою очередь вызывает у него гордость за родителей и учителей. Он начинает чувствовать себя увереннее, адаптируясь ко взрослой жизни. Время проходит незаметно. Находясь в лирическом настроении, родители замечают: «Надо же, уже первый класс закончился…


Качество видео: DVDRip-AVC
Формат: MKV

Видео: AVC, 1024x552 (1.85:1), 25.000 fps, ~2050 Кбит/сек
Аудио: AC-3, 448 Кбит/сек, 6 Каналов, 48.0 КГц

Rip by:



Общее
Уникальный идентификатор : 179648889862934411166935196581323001948 (0x87271E1E114D7D7DAF674587C4A2D05C)
Полное имя : \Dnevnik.Mamu.Pervoklasnika.2014.DVDRip.AVC.ExKInoRay.mkv
Формат : Matroska
Версия формата : Version 2
Размер файла : 1,37 Гбайт
Продолжительность : 1 ч. 18 м.
Общий поток : 2499 Кбит/сек
Название фильма : Dnevnik Mamu Pervoklasnira 2014 from ExKinoRay
Дата кодирования : UTC 2014-12-04 07:00:27
Программа кодирования : mkvmerge v4.9.1 ('Ich will') built on Jul 11 2011 23:53:15
Библиотека кодирования : libebml v1.2.1 + libmatroska v1.1.1

Видео
Идентификатор : 1
Формат : AVC
Формат/Информация : Advanced Video Codec
Профиль формата : High@L4.1
Параметр CABAC формата : Да
Параметр ReFrames формата : 9 кадров
Идентификатор кодека : V_MPEG4/ISO/AVC
Продолжительность : 1 ч. 18 м.
Битрейт : 2050 Кбит/сек
Ширина : 1024 пикселя
Высота : 552 пикселя
Соотношение сторон : 1,85:1
Режим частоты кадров : Постоянный
Частота кадров : 25,000 кадров/сек
Цветовое пространство : YUV
Субдискретизация насыщенности : 4:2:0
Битовая глубина : 8 бит
Тип развёртки : Прогрессивная
Бит/(Пиксели*Кадры) : 0.145
Размер потока : 1,09 Гбайт (80%)
Заголовок : Enigma
Библиотека кодирования : x264 core 133 r2334 a3ac64b
Настройки программы : cabac=1 / ref=9 / deblock=1:-1:-2 / analyse=0x3:0x113 / me=umh / subme=11 / psy=1 / psy_rd=1.00:0.00 / mixed_ref=1 / me_range=32 / chroma_me=1 / trellis=2 / 8x8dct=1 / cqm=0 / deadzone=21,11 / fast_pskip=0 / chroma_qp_offset=-2 / threads=12 / lookahead_threads=2 / sliced_threads=0 / nr=0 / decimate=0 / interlaced=0 / bluray_compat=0 / constrained_intra=0 / bframes=9 / b_pyramid=2 / b_adapt=2 / b_bias=0 / direct=3 / weightb=1 / open_gop=0 / weightp=2 / keyint=250 / keyint_min=25 / scenecut=40 / intra_refresh=0 / rc=2pass / mbtree=0 / bitrate=2050 / ratetol=1.0 / qcomp=0.60 / qpmin=0 / qpmax=69 / qpstep=4 / cplxblur=20.0 / qblur=0.5 / ip_ratio=1.40 / pb_ratio=1.30 / aq=1:1.00
Default : Да
Forced : Нет

Аудио
Идентификатор : 2
Формат : AC-3
Формат/Информация : Audio Coding 3
Расширение режима : CM (complete main)
Параметр Endianness формата : Big
Идентификатор кодека : A_AC3
Продолжительность : 1 ч. 18 м.
Вид битрейта : Постоянный
Битрейт : 448 Кбит/сек
Каналы : 6 каналов
Расположение каналов : Front: L C R, Side: L R, LFE
Частота : 48,0 КГц
Битовая глубина : 16 бит
Метод сжатия : С потерями
Размер потока : 251 Мбайт (18%)
Язык : Russian
Default : Да
Forced : Нет

Меню
00:00:00.000 : :Chapter 01
00:10:02.880 : :Chapter 02
00:19:58.560 : :Chapter 03
00:31:04.800 : :Chapter 04
00:41:20.160 : :Chapter 05
00:51:08.160 : :Chapter 06
01:00:30.240 : :Chapter 07
01:09:40.320 : :Chapter 08


picpicpicpicpic
Для увеличения картинки щелкните мышкой по превью

Этот торрент недоступен для скачивания без регистрации, однако доступен по публичной magnet-ссылке (источники с публичных трекеров). Перед использованием ссылки прочтите, пожалуйста Пользовательское соглашение, а также как можно дольше оставайтесь на раздаче! Для того, чтобы скачать сам торрент-файл (который видит больше источников), а также для того, чтобы поблагодарить релизера, вам необходимо зарегистрироваться. Если регистрироваться лень - вы можете также попробовать скачать релиз по нашим партнерским ссылкам ниже.

[underverse.su].t46966.torrent
Трекер: Зарегистрирован   [ 04.12.2014 08:24 ]  

Статус: проверено (by Ведьмочка at 04.12.2014 08:34)
Поблагодарили: 3 человека
Тип торрента: публичный - доступные источники с открытых трекеров: 
Размер: 1,37 GB (занимает 0,31 DVDR, для записи нужно 1 болванка DVDR/RW)
 
 
Похожие темы
Форум Тема Автор Торрент Отв. Посл. сооб.
Наше кино [DVDRip, Low-Res HDRip, и т.д.] Дневник мамы первоклассника (Андрей Силкин) [2014 г., Детский, Мелодрама, Семейный, DVDRip] Ведьмочка
74 | 2

0 | 584

15

04.12.2014 03:10


Яндекс.Метрика powered by Sphinx


В Н И М А Н И Е
Сайт не распространяет и не хранит электронные версии произведений, а лишь бесплатно и без коммерческой выгоды (не требуя взамен платы,
SMS и т.д.) предоставляет доступ к создаваемому пользователями каталогу ссылок на торрент-файлы, которые содержат только списки хеш-сумм.
Убедительная просьба с жалобами обращаться напрямую к пользователю, разместившему торрент файл.

Вверх