Loading...
Error

Раскаяние / Соблазн / Серии: 1-16 из 16 (Ольга Субботина) [2014 г., Мелодрама, HDTVRip]

Статистика раздачи
Размер:  11,14 GB   |    Зарегистрирован:  1 год 11 месяцев   |    Скачан:  12 раз

Полного источника не было: 1 месяц 1 день

Сидов:  0  |  0 KB/s  ]   Личеров:  0  |  0 KB/s  ]

* - сиды/пиры с внешних источников

   
 
Автор Сообщение

Ведьмочка Пол:Жен

04-Дек-2014 06:21

Раскаяние / Соблазн


Страна: Россия
Год выпуска: 2014
Жанр: Мелодрама
Продолжительность: ~00:50:00 (каждая серия)
Режиссёр: Ольга Субботина
В ролях: Татьяна Арнтгольц, Евгений Пронин, Артём Осипов, Агния Кузнецова, Виталий Хаев, Анна Котова, Елена Захарова, Денис Бургазлиев, Эммануил Виторган, Дмитрий Лабуш, Сергей Баталов, Тамара Акулова, Александр Песков, Иван Иванов (V), Евгений Березовский, Игорь Трошин, Дарья Сивова, Ольга Гагарина
Сюжет фильма:
Вера родилась и выросла в небольшом провинциальном городишке, но вот судьбе было угодно, чтобы в жизни простой, скромной девушки объявился столичный, богатый щёголь. Вера с первого же взгляда влюбляется в заезжего бизнесмена и готова пойти за ним хоть на край света. Но знала ли тогда она, чем обернутся для неё эти отношения?

Качество видео: HDTVRip
Формат: AVI

Видео: XviD, 720x400 (16:9), 25.000 fps, ~1798 Кбит/сек
Аудио: AC-3, 192 Кбит/сек, 2 Канала, 48.0 КГц

Rip by:



Общее
Полное имя : \Raskajanie.(Soblazn).HDTVRip.MediaClub\Raskajanie.(Soblazn).16.HDTVRip.MediaClub.avi
Формат : AVI
Формат/Информация : Audio Video Interleave
Размер файла : 687 Мбайт
Продолжительность : 47 м.
Общий поток : 2000 Кбит/сек
Программа кодирования : VirtualDubMod 1.5.10.3 | www.virtualdub-fr.org || (build 2550/release)
Библиотека кодирования : VirtualDub build 32507/release

Видео
Идентификатор : 0
Формат : MPEG-4 Visual
Профиль формата : Advanced Simple@L5
Параметр BVOP формата : 1
Параметр QPel формата : Нет
Параметр GMC формата : Без точки перехода
Параметр матрицы формата : Выборочная
Идентификатор кодека : XVID
Идентификатор кодека/Подсказка : XviD
Продолжительность : 47 м.
Битрейт : 1798 Кбит/сек
Ширина : 720 пикселей
Высота : 400 пикселей
Соотношение сторон : 16:9
Частота кадров : 25,000 кадров/сек
Цветовое пространство : YUV
Субдискретизация насыщенности : 4:2:0
Битовая глубина : 8 бит
Тип развёртки : Прогрессивная
Метод сжатия : С потерями
Бит/(Пиксели*Кадры) : 0.250
Размер потока : 617 Мбайт (90%)
Библиотека кодирования : XviD 73

Аудио
Идентификатор : 1
Формат : AC-3
Формат/Информация : Audio Coding 3
Расширение режима : CM (complete main)
Параметр Endianness формата : Big
Идентификатор кодека : 2000
Продолжительность : 47 м.
Вид битрейта : Постоянный
Битрейт : 192 Кбит/сек
Каналы : 2 канала
Расположение каналов : Front: L R
Частота : 48,0 КГц
Битовая глубина : 16 бит
Метод сжатия : С потерями
Размер потока : 65,9 Мбайт (10%)
Выравнивание : Разделение по промежуткам
Продолжительность промежутка : 40 мс. (1,00 видеокадр)
Время предзагрузки промежутка : 500 мс.


picpicpicpicpic
Для увеличения картинки щелкните мышкой по превью

Этот торрент недоступен для скачивания без регистрации, однако доступен по публичной magnet-ссылке (источники с публичных трекеров). Перед использованием ссылки прочтите, пожалуйста Пользовательское соглашение, а также как можно дольше оставайтесь на раздаче! Для того, чтобы скачать сам торрент-файл (который видит больше источников), а также для того, чтобы поблагодарить релизера, вам необходимо зарегистрироваться. Если регистрироваться лень - вы можете также попробовать скачать релиз по нашим партнерским ссылкам ниже.

[underverse.su].t46963.torrent
Трекер: Зарегистрирован   [ 06.12.2014 12:47 ]  

Статус: проверено (by Ведьмочка at 06.12.2014 12:47)
Поблагодарили: 1 человек
Тип торрента: публичный - доступные источники с открытых трекеров: 
Размер: 11,14 GB (занимает 2,55 DVDR, для записи нужно 3 болванки DVDR/RW)
 
 

Яндекс.Метрика powered by Sphinx


В Н И М А Н И Е
Сайт не распространяет и не хранит электронные версии произведений, а лишь бесплатно и без коммерческой выгоды (не требуя взамен платы,
SMS и т.д.) предоставляет доступ к создаваемому пользователями каталогу ссылок на торрент-файлы, которые содержат только списки хеш-сумм.
Убедительная просьба с жалобами обращаться напрямую к пользователю, разместившему торрент файл.

Вверх