Loading...
Error

Милосердие / Mercy (Питер Корнвэлл) [2014 г., Ужасы, Триллер, WEB-DLRip] DVO (RUS, Влад & Снежинка) + Original (ENG)

Статистика раздачи
Размер:  1,31 GB   |    Зарегистрирован:  2 года   |    Скачан:  8 раз

Полного источника не было: 1 год 9 месяцев

Сидов:  0  |  0 KB/s  ]   Личеров:  0  |  0 KB/s  ]

* - сиды/пиры с внешних источников

   
 
Автор Сообщение

Ведьмочка Пол:Жен

04-Дек-2014 06:02

Милосердие / Mercy


Страна: США
Год выпуска: 2014
Жанр: Ужасы, Триллер
Продолжительность: 01:18:38
Режиссёр: Питер Корнвэлл
В ролях: Чендлер Риггз, Дилан МакДермотт, Марк Дюпласс, Фрэнсис О’Коннор, Джоэл Кортни, Аманда Уолш, Ширли Найт, Хана Хэйес, Крис Браунинг, Джо Эгендер
Сюжет фильма:
Мать-одиночка и два ее мальчика ухаживают за бабушкой, обладающей мистическими силами.

Озвучивание:
  • Любительский, Двухголосный, Русский [Влад & Снежинка]
  • Оригинал, Английский

Качество видео: WEB-DLRip
Формат: AVI

Видео: XviD, 720x304 (2.35:1), 23.976 fps, ~1603 Кбит/сек
Аудио #1: AC-3, 384 Кбит/сек, 6 Каналов, 48.0 КГц
Аудио #2: AC-3, 384 Кбит/сек, 6 Каналов, 48.0 КГц

Rip by:



Общее
Полное имя : \Mercy.2014.WEB-DLRip.CINEMANIA.avi
Формат : AVI
Формат/Информация : Audio Video Interleave
Размер файла : 1,31 Гбайт
Продолжительность : 1 ч. 18 м.
Общий поток : 2385 Кбит/сек
Программа кодирования : VirtualDubMod 1.5.10.2 (build 2542/release)
Библиотека кодирования : VirtualDubMod build 2542/release

Видео
Идентификатор : 0
Формат : MPEG-4 Visual
Профиль формата : Advanced Simple@L5
Параметр BVOP формата : 2
Параметр QPel формата : Нет
Параметр GMC формата : Без точки перехода
Параметр матрицы формата : Default (H.263)
Режим смешивания : Сжатый битовый поток
Идентификатор кодека : XVID
Идентификатор кодека/Подсказка : XviD
Продолжительность : 1 ч. 18 м.
Битрейт : 1603 Кбит/сек
Ширина : 720 пикселей
Высота : 304 пикселя
Соотношение сторон : 2,35:1
Частота кадров : 23,976 кадра/сек
Цветовое пространство : YUV
Субдискретизация насыщенности : 4:2:0
Битовая глубина : 8 бит
Тип развёртки : Прогрессивная
Метод сжатия : С потерями
Бит/(Пиксели*Кадры) : 0.305
Размер потока : 902 Мбайт (67%)
Библиотека кодирования : XviD 64

Аудио #1
Идентификатор : 1
Формат : AC-3
Формат/Информация : Audio Coding 3
Расширение режима : CM (complete main)
Параметр Endianness формата : Big
Идентификатор кодека : 2000
Продолжительность : 1 ч. 18 м.
Вид битрейта : Постоянный
Битрейт : 384 Кбит/сек
Каналы : 6 каналов
Расположение каналов : Front: L C R, Side: L R, LFE
Частота : 48,0 КГц
Битовая глубина : 16 бит
Метод сжатия : С потерями
Размер потока : 216 Мбайт (16%)
Выравнивание : Разделение по промежуткам
Продолжительность промежутка : 42 мс. (1,00 видеокадр)
Время предзагрузки промежутка : 500 мс.

Аудио #2
Идентификатор : 2
Формат : AC-3
Формат/Информация : Audio Coding 3
Расширение режима : CM (complete main)
Параметр Endianness формата : Big
Идентификатор кодека : 2000
Продолжительность : 1 ч. 18 м.
Вид битрейта : Постоянный
Битрейт : 384 Кбит/сек
Каналы : 6 каналов
Расположение каналов : Front: L C R, Side: L R, LFE
Частота : 48,0 КГц
Битовая глубина : 16 бит
Метод сжатия : С потерями
Размер потока : 216 Мбайт (16%)
Выравнивание : Разделение по промежуткам
Продолжительность промежутка : 42 мс. (1,00 видеокадр)
Время предзагрузки промежутка : 500 мс.


picpicpicpicpic
Для увеличения картинки щелкните мышкой по превью

Этот торрент недоступен для скачивания без регистрации, однако доступен по публичной magnet-ссылке (источники с публичных трекеров). Перед использованием ссылки прочтите, пожалуйста Пользовательское соглашение, а также как можно дольше оставайтесь на раздаче! Для того, чтобы скачать сам торрент-файл (который видит больше источников), а также для того, чтобы поблагодарить релизера, вам необходимо зарегистрироваться. Если регистрироваться лень - вы можете также попробовать скачать релиз по нашим партнерским ссылкам ниже.

[underverse.su].t46962.torrent
Трекер: Зарегистрирован   [ 04.12.2014 06:02 ]  

Статус: проверено (by Ведьмочка at 04.12.2014 06:02)
Поблагодарили: пока никто не поблагодарил...
Тип торрента: публичный - доступные источники с открытых трекеров: 
Размер: 1,31 GB (занимает 0,3 DVDR, для записи нужно 1 болванка DVDR/RW)
 
 
Похожие темы
Форум Тема Автор Торрент Отв. Посл. сооб.
Зарубежное кино [DVDRip, Low-Res HDRip, и т.д.] Милосердие / Mercy (Крис Спарлинг) [2016 г., триллер, HDRip] VO (datynet) makkol
6 | 0

0 | 110

1

30.11.2016 11:04

T Зарубежное кино [DVDRip, Low-Res HDRip, и т.д.] Милосердие / Mercy (Питер Корнвэлл / Peter Cornwell) [2014 г., ужасы, триллер, WEB-DLRip] Dub (iTunes) + Original (Eng) 90ytr90
3 | 0

0 | 529

19

22.03.2015 15:10

Зарубежное кино [HDDVDRip / BDRip / WEB-DL / HDTV 1080/720р] Милосердие / Mercy (Питер Корнвэлл) [2014 г., Ужасы, Триллер, WEB-DL 720p] DVO (RUS, Влад & Снежинка) + Original (ENG) + Subs (RUS) Ведьмочка
25 | 1

0 | 531

10

04.12.2014 05:55


Яндекс.Метрика powered by Sphinx


В Н И М А Н И Е
Сайт не распространяет и не хранит электронные версии произведений, а лишь бесплатно и без коммерческой выгоды (не требуя взамен платы,
SMS и т.д.) предоставляет доступ к создаваемому пользователями каталогу ссылок на торрент-файлы, которые содержат только списки хеш-сумм.
Убедительная просьба с жалобами обращаться напрямую к пользователю, разместившему торрент файл.

Вверх