Loading...
Error

Репетиции (Оксана Карас) [2013 г., Драма, Комедия, SATRip]

Статистика раздачи
Размер:  1,36 GB   |    Зарегистрирован:  1 год 11 месяцев   |    Скачан:  21 раз

Полного источника не было: 1 месяц 11 дней

Сидов:  0  |  0 KB/s  ]   Личеров:  0  |  0 KB/s  ]

* - сиды/пиры с внешних источников

   
 
Автор Сообщение

Ведьмочка Пол:Жен

04-Дек-2014 03:39

Репетиции


Страна: Россия
Год выпуска: 2013
Жанр: Драма, Комедия
Продолжительность: 01:39:17
Режиссёр: Оксана Карас
В ролях: Александра Виноградова, Никита Ефремов, Игорь Яцко, Ирина Денисова, Пётр Фёдоров, Елена Коренева, Александр Яценко, Василий Соловьев, Юрий Шерстнёв, Азамат Нигманов
Сюжет фильма:
Театральный художник Александра и талантливый актер Игорь — красивая молодая пара. Они живут вместе, но ежедневно, «на завтра» откладывают самые важные вопросы- семьи, детей, принятия решений. Мегаполис диктует бешеный ритм жизни. Работа, секс, премьеры, встречи дарят опасную иллюзию, что настоящее - всего лишь репетиция, и завтра все можно будет переиграть заново. Не желая уезжать с Игорем на другой конец света, Александра решается на новый роман. Очередные «репетиции», как ей кажется, проходят удачно, но внезапно меняется задуманный сценарий.

Качество видео: SATRip
Формат: AVI

Видео: XviD, 720x400 (16:9), 25.000 fps, ~1826 Кбит/сек
Аудио: MP3, 128 Кбит/сек, 2 Канала, 48.0 КГц

Rip by:



Общее
Полное имя : \Repeticii.2013.SATRip.MediaClub.avi
Формат : AVI
Формат/Информация : Audio Video Interleave
Размер файла : 1,36 Гбайт
Продолжительность : 1 ч. 39 м.
Общий поток : 1964 Кбит/сек
Название фильма : MediaClub
Программа кодирования : VirtualDubMod 1.5.10.2 (build 2540/release)
Библиотека кодирования : VirtualDubMod build 2540/release

Видео
Идентификатор : 0
Формат : MPEG-4 Visual
Профиль формата : Advanced Simple@L5
Параметр BVOP формата : 2
Параметр QPel формата : Нет
Параметр GMC формата : Без точки перехода
Параметр матрицы формата : Default (MPEG)
Идентификатор кодека : XVID
Идентификатор кодека/Подсказка : XviD
Продолжительность : 1 ч. 39 м.
Битрейт : 1826 Кбит/сек
Ширина : 720 пикселей
Высота : 400 пикселей
Соотношение сторон : 16:9
Частота кадров : 25,000 кадров/сек
Цветовое пространство : YUV
Субдискретизация насыщенности : 4:2:0
Битовая глубина : 8 бит
Тип развёртки : Прогрессивная
Метод сжатия : С потерями
Бит/(Пиксели*Кадры) : 0.254
Размер потока : 1,27 Гбайт (93%)
Библиотека кодирования : XviD 65

Аудио
Идентификатор : 1
Формат : MPEG Audio
Версия формата : Version 1
Профиль формата : Layer 3
Идентификатор кодека : 55
Идентификатор кодека/Подсказка : MP3
Продолжительность : 1 ч. 39 м.
Вид битрейта : Постоянный
Битрейт : 128 Кбит/сек
Каналы : 2 канала
Частота : 48,0 КГц
Метод сжатия : С потерями
Задержка видео : 1 с. 176 мс.
Размер потока : 90,9 Мбайт (7%)
Выравнивание : Разделение по промежуткам
Продолжительность промежутка : 40 мс. (1,00 видеокадр)
Время предзагрузки промежутка : 504 мс.
Библиотека кодирования : LAME3.99r
Настройки программы : -m s -V 4 -q 2 -lowpass 17 -b 128


picpicpicpicpic
Для увеличения картинки щелкните мышкой по превью

Этот торрент недоступен для скачивания без регистрации, однако доступен по публичной magnet-ссылке (источники с публичных трекеров). Перед использованием ссылки прочтите, пожалуйста Пользовательское соглашение, а также как можно дольше оставайтесь на раздаче! Для того, чтобы скачать сам торрент-файл (который видит больше источников), а также для того, чтобы поблагодарить релизера, вам необходимо зарегистрироваться. Если регистрироваться лень - вы можете также попробовать скачать релиз по нашим партнерским ссылкам ниже.

[underverse.su].t46954.torrent
Трекер: Зарегистрирован   [ 04.12.2014 03:39 ]  

Статус: проверено (by Ведьмочка at 04.12.2014 03:39)
Поблагодарили: 1 человек
Тип торрента: публичный - доступные источники с открытых трекеров: 
Размер: 1,36 GB (занимает 0,31 DVDR, для записи нужно 1 болванка DVDR/RW)
 
 

Яндекс.Метрика powered by Sphinx


В Н И М А Н И Е
Сайт не распространяет и не хранит электронные версии произведений, а лишь бесплатно и без коммерческой выгоды (не требуя взамен платы,
SMS и т.д.) предоставляет доступ к создаваемому пользователями каталогу ссылок на торрент-файлы, которые содержат только списки хеш-сумм.
Убедительная просьба с жалобами обращаться напрямую к пользователю, разместившему торрент файл.

Вверх