Loading...
Error

Приключения маленьких итальянцев / Amori elementari (Серджо Бассо) [2014 г., Комедия, Семейный, DVDRip]

Статистика раздачи
Размер:  1,37 GB   |    Зарегистрирован:  1 год 11 месяцев   |    Скачан:  24 раза

Полного источника не было: 10 месяцев

Сидов:  0  |  0 KB/s  ]   Личеров:  0  |  0 KB/s  ]

* - сиды/пиры с внешних источников

   
 
Автор Сообщение

Ведьмочка Пол:Жен

04-Дек-2014 03:22

Приключения маленьких итальянцев / Amori elementari


Страна: Россия , Италия
Год выпуска: 2014
Жанр: Комедия, Семейный
Продолжительность: 01:34:20
Режиссёр: Серджо Бассо
В ролях: Андрей Чернышов, Ольга Погодина, Кристиана Капотонди, Александр Ковтунец, Максим Бычков, Анна Потебня, Андреа Питторино, Лаура Гайя Пьячентилле, Ракеле Кремона, Бонни Маппиматтель
Сюжет фильма:
Неразлучные друзья из маленько итальянского альпийского городка занимаются фигурным катанием и хоккеем. Однажды по вине ребят пропадает ценная шайба, которая принадлежала их тренеру, бывшему известному российскому спортсмену. Они должны срочно, пока никто не заметил, вернуть ее! Это обстоятельство явилось причиной срочного отлета в Москву всех тех, кто случайно или специально был посвящен в эту тайну.

В Россию прибыли трое итальянских детей, один индус и двое русских ребят, живущих в Италии. Но в Москве одна из итальянских девочек решила сбежать, что усложнило и так непростые соревнования за шайбу в незнакомой стране…


Качество видео: DVDRip
Формат: AVI

Видео: XviD, 720x304 (2.35:1), 25.000 fps, ~1621 Кбит/сек
Аудио: AC-3, 448 Кбит/сек, 6 Каналов, 48.0 КГц



Общее
Полное имя : \Priklychenia.Malenkih.Italiancev.2014.O.DVDRip.1400Mb.avi
Формат : AVI
Формат/Информация : Audio Video Interleave
Размер файла : 1,37 Гбайт
Продолжительность : 1 ч. 34 м.
Общий поток : 2079 Кбит/сек
Программа кодирования : VirtualDubMod 1.5.10.3 | www.virtualdub-fr.org || (build 2550/release)
Библиотека кодирования : VirtualDubMod build 2550/release

Видео
Идентификатор : 0
Формат : MPEG-4 Visual
Профиль формата : Advanced Simple@L5
Параметр BVOP формата : 2
Параметр QPel формата : Нет
Параметр GMC формата : Без точки перехода
Параметр матрицы формата : Default (MPEG)
Идентификатор кодека : XVID
Идентификатор кодека/Подсказка : XviD
Продолжительность : 1 ч. 34 м.
Битрейт : 1621 Кбит/сек
Ширина : 720 пикселей
Высота : 304 пикселя
Соотношение сторон : 2,35:1
Частота кадров : 25,000 кадров/сек
Цветовое пространство : YUV
Субдискретизация насыщенности : 4:2:0
Битовая глубина : 8 бит
Тип развёртки : Прогрессивная
Метод сжатия : С потерями
Бит/(Пиксели*Кадры) : 0.296
Размер потока : 1,07 Гбайт (78%)
Библиотека кодирования : XviD 1.2.1 (UTC 2008-12-04)

Аудио
Идентификатор : 1
Формат : AC-3
Формат/Информация : Audio Coding 3
Расширение режима : CM (complete main)
Параметр Endianness формата : Big
Идентификатор кодека : 2000
Продолжительность : 1 ч. 34 м.
Вид битрейта : Постоянный
Битрейт : 448 Кбит/сек
Каналы : 6 каналов
Расположение каналов : Front: L C R, Side: L R, LFE
Частота : 48,0 КГц
Битовая глубина : 16 бит
Метод сжатия : С потерями
Размер потока : 302 Мбайт (22%)
Выравнивание : Разделение по промежуткам
Продолжительность промежутка : 40 мс. (1,00 видеокадр)
Время предзагрузки промежутка : 500 мс.


picpicpicpicpic
Для увеличения картинки щелкните мышкой по превью

Этот торрент недоступен для скачивания без регистрации, однако доступен по публичной magnet-ссылке (источники с публичных трекеров). Перед использованием ссылки прочтите, пожалуйста Пользовательское соглашение, а также как можно дольше оставайтесь на раздаче! Для того, чтобы скачать сам торрент-файл (который видит больше источников), а также для того, чтобы поблагодарить релизера, вам необходимо зарегистрироваться. Если регистрироваться лень - вы можете также попробовать скачать релиз по нашим партнерским ссылкам ниже.

[underverse.su].t46953.torrent
Трекер: Зарегистрирован   [ 04.12.2014 03:22 ]  

Статус: проверено (by Ведьмочка at 04.12.2014 03:23)
Поблагодарили: 1 человек
Тип торрента: публичный - доступные источники с открытых трекеров: 
Размер: 1,37 GB (занимает 0,31 DVDR, для записи нужно 1 болванка DVDR/RW)
 
 
Похожие темы
Форум Тема Автор Торрент Отв. Посл. сооб.
Зарубежное кино [DVDRip, Low-Res HDRip, и т.д.] Приключения Гекльберри Финна / Die Abenteuer des Huck Finn (Гермина Хунтгебурт) [2013 г., Приключения, BDRip-AVC] Dub Чертёнок
1 | 0

1 | 1258

37

08.06.2013 18:37

Зарубежное кино [DVDRip, Low-Res HDRip, и т.д.] Приключения Гекльберри Финна / Die Abenteuer des Huck Finn ( Гермина Хунтгебурт) [2012 г., Приключения, семейный, DVDRip] Dub Gaarochi
0 | 0

0 | 1547

23

08.06.2013 07:16

Зарубежное кино [DVDRip, Low-Res HDRip, и т.д.] Приключения Гекльберри Финна / Die Abenteuer des Huck Finn (Гермина Хунтгебурт / Hermine Huntgeburth) [2012 г., приключения, семейный, BDRip] Dub + Original 90ytr90
3 | 0

0 | 981

16

26.08.2013 15:09

T Зарубежное кино [DVDRip, Low-Res HDRip, и т.д.] Приключение двух нянь / Adventures in Babysitting (Джон Шульц / John Schultz) [2016 г., комедия, WEB-DLRip] Dub (чистый звук) 90ytr90
1238 | 24

0 | 284

8

03.11.2016 22:02

? Зарубежное кино [DVDRip, Low-Res HDRip, и т.д.] Приключения Затойчи / Adventures Of Zatoichi / Zatoichi sekisho yaburi (Кимиёши Ясуда) [1964 г., боевик, приключения, драма, HDRip] Dryn9
0 | 0

1 | 829

2

14.04.2014 17:06

Зарубежное кино [DVDRip, Low-Res HDRip, и т.д.] Приключение двух нянь / Adventures in Babysitting (Джон Шульц / John Schultz) [2016 г., комедия, WEB-DLRip-AVC] MVO (АНАНАС) + Original (Eng) + Sub (Rus, Eng) 90ytr90
178 | 4

0 | 480

7

26.10.2016 19:00

T Зарубежное кино [DVDRip, Low-Res HDRip, и т.д.] Приключение двух нянь / Adventures in Babysitting (Джон Шульц / John Schultz) [2016 г., комедия, WEB-DLRip] Dub (чистый звук) 90ytr90
0 | 0

0 | 479

7

26.10.2016 18:41

T Зарубежное кино [DVDRip, Low-Res HDRip, и т.д.] Приключения Паддингтона / Paddington (Пол Кинг) [2014 г., комедия, семейный, HDTVRip] Dub (чистый звук) 90ytr90
23 | 0

2 | 1098

147

08.03.2015 06:53

T Зарубежное кино [DVDRip, Low-Res HDRip, и т.д.] Приключения Паддингтона / Paddington (Пол Кинг) [2014 г., комедия, семейный, HDTVRip] Dub (чистый звук) 90ytr90
0 | 0

0 | 724

15

18.02.2015 06:11

Зарубежное кино [DVDRip, Low-Res HDRip, и т.д.] Приключения викингов / Viking Quest (Тодор Чапканов / Todor Chapkanov) [2014 г., фэнтези, боевик, HDRip] MVO (SDI) 90ytr90
1 | 0

0 | 1554

70

19.03.2015 11:52


Яндекс.Метрика powered by Sphinx


В Н И М А Н И Е
Сайт не распространяет и не хранит электронные версии произведений, а лишь бесплатно и без коммерческой выгоды (не требуя взамен платы,
SMS и т.д.) предоставляет доступ к создаваемому пользователями каталогу ссылок на торрент-файлы, которые содержат только списки хеш-сумм.
Убедительная просьба с жалобами обращаться напрямую к пользователю, разместившему торрент файл.

Вверх