Loading...
Error

Счастливый брак / A Good Marriage (Питер Эскин) [2014 г., Триллер, WEB-DLRip] DVO (RUS, Влад & Снежинка)

Статистика раздачи
Размер:  1,49 GB   |    Зарегистрирован:  2 года   |    Скачан:  16 раз

Полного источника не было: 1 год

Сидов:  0  |  0 KB/s  ]   Личеров:  0  |  0 KB/s  ]

* - сиды/пиры с внешних источников

   
 
Автор Сообщение

Ведьмочка Пол:Жен

04-Дек-2014 02:22

Счастливый брак / A Good Marriage


Страна: США
Год выпуска: 2014
Жанр: Триллер
Продолжительность: 01:41:33
Режиссёр: Питер Эскин
В ролях: Джоан Аллен, Энтони ЛаПалья, Кристен Коннолли, Стивен Лэнг, Майк О’Мэлли, Уилл Роджерс, Тео Стокман, Брэйди Брайсон, Джейсон Е. Теста, Грегг Майклс
Сюжет фильма:
После 25 лет счастливого брака Дарси узнаёт зловещий секрет о своём муже. Как быть, если под угрозой не только семья, но и жизнь?

Озвучивание:
  • Любительский, Двухголосный, Русский [Влад & Снежинка]

Качество видео: WEB-DLRip
Формат: AVI

Видео: XviD, 720x304 (2.35:1), 23.976 fps, ~1701 Кбит/сек
Аудио: AC-3, 384 Кбит/сек, 6 Каналов, 48.0 КГц



Общее
Полное имя : \A.Good.Marriage.2014.L2.WEB-DLRip.avi
Формат : AVI
Формат/Информация : Audio Video Interleave
Размер файла : 1,49 Гбайт
Продолжительность : 1 ч. 41 м.
Общий поток : 2094 Кбит/сек
Программа кодирования : VirtualDubMod 1.5.10.3 | www.virtualdub-fr.org || (build 2550/release)
Библиотека кодирования : VirtualDubMod build 2550/release

Видео
Идентификатор : 0
Формат : MPEG-4 Visual
Профиль формата : Advanced Simple@L5
Параметр BVOP формата : 1
Параметр QPel формата : Нет
Параметр GMC формата : Без точки перехода
Параметр матрицы формата : Выборочная
Идентификатор кодека : XVID
Идентификатор кодека/Подсказка : XviD
Продолжительность : 1 ч. 41 м.
Битрейт : 1701 Кбит/сек
Ширина : 720 пикселей
Высота : 304 пикселя
Соотношение сторон : 2,35:1
Частота кадров : 23,976 кадра/сек
Цветовое пространство : YUV
Субдискретизация насыщенности : 4:2:0
Битовая глубина : 8 бит
Тип развёртки : Прогрессивная
Метод сжатия : С потерями
Бит/(Пиксели*Кадры) : 0.324
Размер потока : 1,21 Гбайт (81%)
Библиотека кодирования : XviD 73

Аудио
Идентификатор : 1
Формат : AC-3
Формат/Информация : Audio Coding 3
Расширение режима : CM (complete main)
Параметр Endianness формата : Big
Идентификатор кодека : 2000
Продолжительность : 1 ч. 41 м.
Вид битрейта : Постоянный
Битрейт : 384 Кбит/сек
Каналы : 6 каналов
Расположение каналов : Front: L C R, Side: L R, LFE
Частота : 48,0 КГц
Битовая глубина : 16 бит
Метод сжатия : С потерями
Размер потока : 279 Мбайт (18%)
Выравнивание : Разделение по промежуткам
Продолжительность промежутка : 42 мс. (1,00 видеокадр)
Время предзагрузки промежутка : 500 мс.


picpicpicpicpic
Для увеличения картинки щелкните мышкой по превью

Этот торрент недоступен для скачивания без регистрации, однако доступен по публичной magnet-ссылке (источники с публичных трекеров). Перед использованием ссылки прочтите, пожалуйста Пользовательское соглашение, а также как можно дольше оставайтесь на раздаче! Для того, чтобы скачать сам торрент-файл (который видит больше источников), а также для того, чтобы поблагодарить релизера, вам необходимо зарегистрироваться. Если регистрироваться лень - вы можете также попробовать скачать релиз по нашим партнерским ссылкам ниже.

[underverse.su].t46950.torrent
Трекер: Зарегистрирован   [ 04.12.2014 02:23 ]  

Статус: проверено (by Ведьмочка at 04.12.2014 02:23)
Поблагодарили: пока никто не поблагодарил...
Тип торрента: публичный - доступные источники с открытых трекеров: 
Размер: 1,49 GB (занимает 0,34 DVDR, для записи нужно 1 болванка DVDR/RW)
 
 
Похожие темы
Форум Тема Автор Торрент Отв. Посл. сооб.
T Зарубежное кино [DVDRip, Low-Res HDRip, и т.д.] Счастливый ключ / Leokki (Ли Ге-бёк / Gye-byeok Lee) [2016 г., комедия, WEBRip] DVO (DeadSno & den904) 90ytr90
268 | 2

0 | 318

11

29.11.2016 20:18

Зарубежное кино [DVDRip, Low-Res HDRip, и т.д.] Счастливый брак / A Good Marriage (Питер Эскин) [2014 г., Триллер, HDRip] VO (RUS, PashaUP) + Subs (RUS, ENG) Ведьмочка
1 | 0

0 | 689

9

06.10.2014 10:48

Зарубежное кино [DVDRip, Low-Res HDRip, и т.д.] Счастливый брак / A Good Marriage (Питер Эскин) [2014 г., Триллер, WEB-DLRip] VO (RUS, PashaUP) + Original (ENG) Ведьмочка
38 | 0

0 | 733

13

06.10.2014 18:12

Зарубежное кино [DVDRip, Low-Res HDRip, и т.д.] Счастливый финал / Happy Ending (Кришна Д., Радж Нидимору) [2014 г., Мелодрама, Комедия, DVDRip] DVO (RUS, Влад & Снежинка) Ведьмочка
29 | 4

0 | 465

6

04.01.2015 06:35

Зарубежное кино [DVDRip, Low-Res HDRip, и т.д.] Счастливый брак / A Good Marriage (Питер Эскин) [2014 г., триллер, драма, HDRip] DVO [den904 & DeadSno] Паукан
5 | 0

0 | 859

28

17.04.2015 12:56

Наше кино [DVDRip, Low-Res HDRip, и т.д.] Счастливый маршрут (Виктория Держицкая) [2013 г., мелодрама, HDTVRip] 90ytr90
5 | 1

0 | 1215

29

02.09.2013 06:33

xUSSR сериалы Счастливый билет [01-08 из 08] (Виталий Москаленко) [2012 г., мелодрама, DVB] H. Ledger
5 | 1

0 | 1042

9

22.06.2012 05:47

xUSSR сериалы Счастливый шанс [01-04 из 04] (Глеб Якубовский) [2014 г., мелодрама, SatRip] konopic
1 | 0

0 | 837

13

14.07.2014 11:34

Зарубежное кино [DVD / HDDVD / BD / Remux] Счастливый побег / Echappement libre (Жан Бекер) [1964 г., комедия, криминал, приключения, DVD5] abc-pa
5 | 0

1 | 1417

5

03.03.2013 08:33

Зарубежное кино [HDDVDRip / BDRip / WEB-DL / HDTV 1080/720р] Счастливый брак / A Good Marriage (Питер Эскин) [2014 г., Триллер, WEB-DL 720p] VO (RUS, PashaUP) + Original (ENG) + Subs (RUS, ENG) Ведьмочка
0 | 0

0 | 650

12

07.10.2014 13:15


Яндекс.Метрика powered by Sphinx


В Н И М А Н И Е
Сайт не распространяет и не хранит электронные версии произведений, а лишь бесплатно и без коммерческой выгоды (не требуя взамен платы,
SMS и т.д.) предоставляет доступ к создаваемому пользователями каталогу ссылок на торрент-файлы, которые содержат только списки хеш-сумм.
Убедительная просьба с жалобами обращаться напрямую к пользователю, разместившему торрент файл.

Вверх