Loading...
Error

Геракл / Hercules (Бретт Рэтнер) [2014 г., Боевик, Приключения, BDRip-AVC] Dub (RUS, Лицензия) + Original (ENG) + Subs (ENG) Театральная версия

Статистика раздачи
Размер:  2,11 GB   |    Зарегистрирован:  2 года   |    Скачан:  20 раз

Полного источника не было: 7 месяцев

Сидов:  0  |  0 KB/s  ]   Личеров:  0  |  0 KB/s  ]

* - сиды/пиры с внешних источников

   
 
Автор Сообщение

Ведьмочка Пол:Жен

04-Дек-2014 01:28

Геракл / Hercules
«Множество врагов. Двенадцать подвигов. Один герой»


Страна: США
Год выпуска: 2014
Жанр: Боевик, Приключения
Продолжительность: 01:38:04
Режиссёр: Бретт Рэтнер
В ролях: Дуэйн Джонсон, Аксель Хенни, Иэн МакШейн, Джон Хёрт, Руфус Сьюэлл, Ингрид Больсё Бердаль, Рис Ричи, Джозеф Файнс, Тобиас Зантельман, Питер Муллан
Сюжет фильма:
Более тысячи лет назад измученная душа скиталась по Земле, полубог, получеловек — Геракл — могучий сын царя богов Зевса, совершив все 12 подвигов, потерял семью и теперь находит утешение только в кровавых битвах.

За эти годы он собирает вокруг себя шестерых таких же потерянных воинов, единственным смыслом жизни для которых стали сражения и присутствие смертельной опасности. Эти мужчины и женщина никогда не задают вопрос, где, почему или с кем они идут сражаться; только, сколько им заплатят. Зная это, фракийский царь Котис нанимает этих воинов, чтобы они обучили его солдат и сделали из них самую сильную и великую армию всех времен.


Озвучивание:
  • Дублированный, Русский [Лицензия]
  • Оригинал, Английский

Качество видео: BDRip-AVC
Формат: MKV

Видео: AVC, 1024x426 (2.40:1), 23.976 fps, ~2187 Кбит/сек
Аудио #1: AC-3, 448 Кбит/сек, 6 Каналов, 48.0 КГц
Аудио #2: AC-3, 448 Кбит/сек, 6 Каналов, 48.0 КГц

Субтитры: UTF-8 [Английские, Полные]

Rip by:



Общее
Уникальный идентификатор : 208652221137408333882925756017788112783 (0x9CF8F4C0AF6F36E4B9672C8CC998CF8F)
Полное имя : \Hercules.2014.D.BDRip.AVC.ExKinoRay.mkv
Формат : Matroska
Версия формата : Version 2
Размер файла : 2,11 Гбайт
Продолжительность : 1 ч. 38 м.
Общий поток : 3085 Кбит/сек
Название фильма : Gercules 2014 from ExKinoRay
Дата кодирования : UTC 2014-12-03 20:21:07
Программа кодирования : mkvmerge v4.9.1 ('Ich will') built on Jul 11 2011 23:53:15
Библиотека кодирования : libebml v1.2.1 + libmatroska v1.1.1

Видео
Идентификатор : 1
Формат : AVC
Формат/Информация : Advanced Video Codec
Профиль формата : High@L4.1
Параметр CABAC формата : Да
Параметр ReFrames формата : 9 кадров
Идентификатор кодека : V_MPEG4/ISO/AVC
Продолжительность : 1 ч. 38 м.
Битрейт : 2187 Кбит/сек
Ширина : 1024 пикселя
Высота : 426 пикселей
Соотношение сторон : 2,40:1
Режим частоты кадров : Постоянный
Частота кадров : 23,976 кадра/сек
Цветовое пространство : YUV
Субдискретизация насыщенности : 4:2:0
Битовая глубина : 8 бит
Тип развёртки : Прогрессивная
Бит/(Пиксели*Кадры) : 0.209
Размер потока : 1,46 Гбайт (69%)
Заголовок : Enigma-Vladislav71
Библиотека кодирования : x264 core 133 r2334 a3ac64b
Настройки программы : cabac=1 / ref=9 / deblock=1:-2:-2 / analyse=0x3:0x113 / me=umh / subme=11 / psy=1 / psy_rd=1.00:0.10 / mixed_ref=1 / me_range=32 / chroma_me=1 / trellis=2 / 8x8dct=1 / cqm=0 / deadzone=21,11 / fast_pskip=0 / chroma_qp_offset=-3 / threads=12 / lookahead_threads=2 / sliced_threads=0 / nr=0 / decimate=0 / interlaced=0 / bluray_compat=0 / constrained_intra=0 / bframes=9 / b_pyramid=2 / b_adapt=2 / b_bias=0 / direct=3 / weightb=1 / open_gop=0 / weightp=2 / keyint=240 / keyint_min=23 / scenecut=40 / intra_refresh=0 / rc=2pass / mbtree=0 / bitrate=2187 / ratetol=1.0 / qcomp=0.60 / qpmin=0 / qpmax=69 / qpstep=4 / cplxblur=20.0 / qblur=0.5 / ip_ratio=1.40 / pb_ratio=1.30 / aq=1:1.00
Default : Да
Forced : Нет
Основные цвета : BT.709
Характеристики трансфера : BT.709
Коэффициенты матрицы : BT.709
colour_range : Limited

Аудио #1
Идентификатор : 2
Формат : AC-3
Формат/Информация : Audio Coding 3
Расширение режима : CM (complete main)
Параметр Endianness формата : Big
Идентификатор кодека : A_AC3
Продолжительность : 1 ч. 38 м.
Вид битрейта : Постоянный
Битрейт : 448 Кбит/сек
Каналы : 6 каналов
Расположение каналов : Front: L C R, Side: L R, LFE
Частота : 48,0 КГц
Битовая глубина : 16 бит
Метод сжатия : С потерями
Размер потока : 314 Мбайт (15%)
Заголовок : DUB BD
Язык : Russian
Default : Да
Forced : Нет

Аудио #2
Идентификатор : 3
Формат : AC-3
Формат/Информация : Audio Coding 3
Расширение режима : CM (complete main)
Параметр Endianness формата : Big
Идентификатор кодека : A_AC3
Продолжительность : 1 ч. 38 м.
Вид битрейта : Постоянный
Битрейт : 448 Кбит/сек
Каналы : 6 каналов
Расположение каналов : Front: L C R, Side: L R, LFE
Частота : 48,0 КГц
Битовая глубина : 16 бит
Метод сжатия : С потерями
Размер потока : 314 Мбайт (15%)
Язык : English
Default : Нет
Forced : Нет

Текст
Идентификатор : 4
Формат : UTF-8
Идентификатор кодека : S_TEXT/UTF8
Идентификатор кодека/Информация : UTF-8 Plain Text
Язык : English
Default : Нет
Forced : Нет

Меню
00:00:00.000 : :Chapter 01
00:05:00.000 : :Chapter 02
00:10:00.000 : :Chapter 03
00:15:00.000 : :Chapter 04
00:20:00.000 : :Chapter 05
00:25:00.000 : :Chapter 06
00:30:00.000 : :Chapter 07
00:35:00.000 : :Chapter 08
00:40:00.000 : :Chapter 09
00:45:00.000 : :Chapter 10
00:50:00.000 : :Chapter 11
00:55:00.000 : :Chapter 12
01:00:00.000 : :Chapter 13
01:05:00.000 : :Chapter 14
01:10:00.000 : :Chapter 15
01:15:00.000 : :Chapter 16
01:20:00.000 : :Chapter 17
01:25:00.000 : :Chapter 18
01:30:00.000 : :Chapter 19
01:35:00.000 : :Chapter 20


picpicpicpicpic
Для увеличения картинки щелкните мышкой по превью

Этот торрент недоступен для скачивания без регистрации, однако доступен по публичной magnet-ссылке (источники с публичных трекеров). Перед использованием ссылки прочтите, пожалуйста Пользовательское соглашение, а также как можно дольше оставайтесь на раздаче! Для того, чтобы скачать сам торрент-файл (который видит больше источников), а также для того, чтобы поблагодарить релизера, вам необходимо зарегистрироваться. Если регистрироваться лень - вы можете также попробовать скачать релиз по нашим партнерским ссылкам ниже.

[underverse.su].t46947.torrent
Трекер: Зарегистрирован   [ 04.12.2014 01:28 ]  

Статус: проверено (by Ведьмочка at 04.12.2014 01:31)
Поблагодарили: пока никто не поблагодарил...
Тип торрента: публичный - доступные источники с открытых трекеров: 
Размер: 2,11 GB (занимает 0,48 DVDR, для записи нужно 1 болванка DVDR/RW)
 
 
Похожие темы
Форум Тема Автор Торрент Отв. Посл. сооб.
Зарубежное кино [DVDRip, Low-Res HDRip, и т.д.] Геракл / Hercules (Бретт Рэтнер / Brett Ratner) [2014 г., боевик, приключения, BDRip] [Theatrical Cut] Dub 90ytr90
2 | 0

0 | 428

6

31.01.2015 22:20

Зарубежное кино [DVDRip, Low-Res HDRip, и т.д.] Геракл / Hercules (Бретт Рэтнер / Brett Ratner) [2014 г., боевик, приключения, BDRip] [Theatrical Cut] Dub + Original (Eng) 90ytr90
2 | 0

0 | 327

3

31.01.2015 22:21

Зарубежное кино [DVDRip, Low-Res HDRip, и т.д.] Геракл / Hercules (Бретт Рэтнер / Brett Ratner) [2014 г., боевик, приключения, BDRip-AVC] [Theatrical Cut] Dub + Sub (Rus, Eng) 90ytr90
14 | 0

0 | 309

4

31.01.2015 22:21

Зарубежное кино [DVDRip, Low-Res HDRip, и т.д.] Геракл / Hercules (Бретт Рэтнер / Brett Ratner) [2014 г., боевик, приключения, BDRip-AVC] [Theatrical Cut] AVO (Есарев) + Sub (Eng) 90ytr90
10 | 0

0 | 316

1

31.01.2015 22:24

Зарубежное кино [DVDRip, Low-Res HDRip, и т.д.] Геракл / Hercules (Бретт Рэтнер / Brett Ratner) [2014 г., боевик, приключения, BDRip] [Extended Cut] Dub/AVO + Original (Eng) + Sub (Rus, Eng) 90ytr90
13 | 3

0 | 356

3

31.01.2015 22:25

Зарубежное кино [DVDRip, Low-Res HDRip, и т.д.] Геракл / Hercules (Бретт Рэтнер / Brett Ratner) [2014 г., боевик, приключения, HDRip] [Extended Cut] Dub/AVO 90ytr90
41 | 0

0 | 373

17

31.01.2015 22:25

Зарубежное кино [DVDRip, Low-Res HDRip, и т.д.] Геракл / Hercules (Бретт Рэтнер / Brett Ratner) [2014 г., боевик, приключения, BDRip-AVC] [Extended Cut] Dub/AVO + Sub (Rus, Eng) 90ytr90
3 | 0

0 | 335

8

31.01.2015 22:26

Зарубежное кино [DVDRip, Low-Res HDRip, и т.д.] Геракл / Hercules (Бретт Рэтнер / Brett Ratner) [2014 г., боевик, приключения, BDRip-AVC] [Extended Cut] Dub/AVO + Original (Eng) + Sub (Rus, Eng) 90ytr90
8 | 0

0 | 416

11

31.01.2015 22:27

Зарубежное кино [DVDRip, Low-Res HDRip, и т.д.] Геракл / Hercules (Бретт Рэтнер / Brett Ratner) [2014 г., боевик, приключения, BDRip-AVC] [Theatrical Cut] Dub 90ytr90
34 | 1

0 | 544

1

18.02.2015 06:19

Зарубежное кино [DVDRip, Low-Res HDRip, и т.д.] Геракл / Hercules (Бретт Рэтнер / Brett Ratner) [2014 г., боевик, приключения, HDRip] [Extended Cut] Dub/AVO 90ytr90
3 | 0

0 | 488

6

18.02.2015 06:27


Яндекс.Метрика powered by Sphinx


В Н И М А Н И Е
Сайт не распространяет и не хранит электронные версии произведений, а лишь бесплатно и без коммерческой выгоды (не требуя взамен платы,
SMS и т.д.) предоставляет доступ к создаваемому пользователями каталогу ссылок на торрент-файлы, которые содержат только списки хеш-сумм.
Убедительная просьба с жалобами обращаться напрямую к пользователю, разместившему торрент файл.

Вверх