Loading...
Error

Чужой (1-24 серия из 24) (Георгий Даниелянц, Вадим Саетгалиев, Петр Забелин) [2014 г., боевик, детектив, криминал, DVB]

Статистика раздачи
Размер:  34,99 GB   |    Зарегистрирован:  1 год 11 месяцев   |    Скачан:  18 раз

Полного источника не было: 3 месяца 25 дней

Сидов:  0  |  0 KB/s  ]   Личеров:  0  |  0 KB/s  ]

* - сиды/пиры с внешних источников

   
 
Автор Сообщение

nemos Пол:Муж

02-Дек-2014 22:22

Год выпуска: 2014
Жанр: боевик, детектив, криминал
Страна: Россия
Режиссер: Георгий Даниелянц, Вадим Саетгалиев, Петр Забелин
В ролях: Сергей Горобченко, Дмитрий Паламарчук, Кира Кауфман, Сергей Кошонин, Сергей Колос, Денис Горин, Наталья Андреева, Валентин Захаров (II), Валерия Сухачева, Мария Зимина (II), Анна Донченко, Ирина Гершт, Мария Шустрова, Александр Михайлов-Уральский, Владислав Петрушин, Роман Притула, Юрий Ковалёв, Кристина Оленникова, Мария Русских, Андрей Вергелис, Дмитрий Кузеняткин, Николай Колосов, Эрнест Тимерханов, Анна Енжаева
Качество видео: DVB

Продолжительность: 00:42:38 серия
Формат: AVI
Видео: MPEG 2 , 720x576, 4575 kbps
Аудио: русский, MP2, 2 ch, 192 kbps


Главный герой сериала, Михаил Аристов, после развода принимает решение вернуться на родину из Австралии, где работал рейнджером в национальном парке. Он абсолютно не представляет себе реалий жизни в современной России. Он привык к обществу равных перед законом людей, к полиции, которая это равенство защищает, к наказанию преступников, невзирая на персоналии. В результате случайного уличного конфликта на Аристова возбуждают уголовное дело. Единственный, кто может ему помочь – начальник уголовного розыска одного из районов полковник Водяной, отчим старого школьного друга. В качестве ответной услуги, Водяной предлагает Аристову поработать в качестве его агента, став водителем салона элитного «эскорта». Он должен среди девушек, работающих в салоне, вычислить проститутку, связанную с преступниками, совершившим налет на особняк олигарха Акулина. Аристов и не представляет, к каким глобальным изменениям в его жизни, к каким драматическим событиям приведет его эта просьба.

Код:

E:\Фильмы Раздача-1\Чужой DVB\Чужой 01_серия_DVB_by_Серый1779.mpg
   General
      Complete name : E:\Фильмы Раздача-1\Чужой DVB\Чужой 01_серия_DVB_by_Серый1779.mpg
      Format : MPEG-PS
      File size : 1.45 GiB
      Duration : 42mn 38s
      Overall bit rate mode : Variable
      Overall bit rate : 4 863 Kbps
   Video #224
      ID : 224 (0xE0)
      Format : MPEG Video
      Format version : Version 2
      Format profile : Main@Main
      Format settings, BVOP : Yes
      Format settings, Matrix : Custom
      Duration : 42mn 38s
      Bit rate mode : Variable
      Bit rate : 4 575 Kbps
      Maximum bit rate : 15.0 Mbps
      Width : 720 pixels
      Height : 576 pixels
      Display aspect ratio : 4:3
      Frame rate : 25.000 fps
      Standard : PAL
      Color space : YUV
      Chroma subsampling : 4:2:0
      Bit depth : 8 bits
      Scan type : Interlaced
      Scan order : Top Field First
      Compression mode : Lossy
      Bits/(Pixel*Frame) : 0.441
      Stream size : 1.36 GiB (94%)
   Audio #192
      ID : 192 (0xC0)
      Format : MPEG Audio
      Format version : Version 1
      Format profile : Layer 2
      Duration : 42mn 38s
      Bit rate mode : Constant
      Bit rate : 192 Kbps
      Channel(s) : 2 channels
      Sampling rate : 48.0 KHz
      Compression mode : Lossy
      Stream size : 58.5 MiB (4%)
picpicpicpicpicpicpicpicpicpicpicpicpicpicpicpicpicpicpic
Для увеличения картинки щелкните мышкой по превью

Этот торрент недоступен для скачивания без регистрации, однако доступен по публичной magnet-ссылке (источники с публичных трекеров). Перед использованием ссылки прочтите, пожалуйста Пользовательское соглашение, а также как можно дольше оставайтесь на раздаче! Для того, чтобы скачать сам торрент-файл (который видит больше источников), а также для того, чтобы поблагодарить релизера, вам необходимо зарегистрироваться. Если регистрироваться лень - вы можете также попробовать скачать релиз по нашим партнерским ссылкам ниже.

[underverse.su].t47659.torrent
Трекер: Зарегистрирован   [ 24.12.2014 10:07 ]  

Статус: проверено (by nemos at 24.12.2014 10:07)
Поблагодарили: 3 человека
Тип торрента: публичный - доступные источники с открытых трекеров: 
Размер: 34,99 GB (занимает 7,99 DVDR, для записи нужно 8 болванок DVDR/RW)
 
 


Последний раз редактировалось: nemos (29.12.2014 15:00), всего редактировалось 11 раз(а)

nemos Пол:Муж

04-Дек-2014 14:37

Торр файл обновлён! 24 серии.


Последний раз редактировалось: nemos (24.12.2014 10:08), всего редактировалось 6 раз(а)

kursant Пол:Муж

11-Дек-2014 21:16

Спасибо

kursant Пол:Муж

25-Дек-2014 20:39

Спасибо!

ksa2 Пол:Муж

26-Дек-2014 12:01

фигня-имхо 8)

Яндекс.Метрика powered by Sphinx


В Н И М А Н И Е
Сайт не распространяет и не хранит электронные версии произведений, а лишь бесплатно и без коммерческой выгоды (не требуя взамен платы,
SMS и т.д.) предоставляет доступ к создаваемому пользователями каталогу ссылок на торрент-файлы, которые содержат только списки хеш-сумм.
Убедительная просьба с жалобами обращаться напрямую к пользователю, разместившему торрент файл.

Вверх