Loading...
Error

Динамо: Невероятный иллюзионист / Dynamo: Magician Impossible (4 сезон / 4 из 4) [2014 г., Шоу, фокусы, HDTVRip]

Статистика раздачи
Размер:  6,07 GB   |    Зарегистрирован:  2 года   |    Скачан:  18 раз

Полного источника не было: 24 дня

Сидов:  0  |  0 KB/s  ]   Личеров:  0  |  0 KB/s  ]

* - сиды/пиры с внешних источников

   
 
Автор Сообщение

ZondeR Пол:Муж

02-Дек-2014 16:13

Динамо: Невероятный иллюзионист / Dynamo: Magician Impossible
4 сезон
Год выпуска: 2014
Жанр: Шоу, фокусы
Страна: Великобритания
Телеканал: Watch
Перевод / Озвучка:
В сериях есть трюки без перевода ,так как были вырезаны каналом Дискавери.

Сюжет фильма:
Знаменитый иллюзионист под псевдонимом Динамо представляет четвертый и последний сезон своего шоу. В этих сериях он побывает в Северной Америке и Индии ,Франции и городах Великобритании удивляя людей своими удивительными трюками .Его волшебная сила – это тайна, которой он окутывает свои масштабные номера. Он появляется из ниоткуда и так же неожиданно исчезает. Завоевав однажды любовь зрителей, он не перестает удивлять новыми трюками, разгадку которых не берутся найти даже отъявленные скептики. Король магии возвращается, чтобы околдовать зрителей всего мира своими фокусами.

Продолжительность: 00:44:27
Формат: ts
Видео: MPEG-4 AVC (H.264), 1280x720, 2919 kbps
Аудио #1: русский, многоголосый закадровый [профессиональный], PCM 2.0, 1536 kbps
Аудио #2: английский, оригинал, AC3 2.0, 192 kbps

Код:

General
ID                               : 1
Complete name                    : D:\Temp\Dynamo.Magician.Impossible.S04\Dynamo.Magician.Impossible.S04E01.720p.HDTV.x264-FaiLED_new.ts
Format                           : MPEG-TS
File size                        : 1.55 GiB
Duration                         : 44mn 27s
Overall bit rate                 : 4 994 Kbps
Maximum Overall bit rate         : 35.5 Mbps

Video
ID                               : 4113 (0x1011)
Menu ID                          : 1 (0x1)
Format                           : AVC
Format/Info                      : Advanced Video Codec
Format profile                   : High@L4.1
Format settings, CABAC           : Yes
Format settings, ReFrames        : 5 frames
Duration                         : 44mn 27s
Bit rate                         : 2 919 Kbps
Width                            : 1 280 pixels
Height                           : 720 pixels
Display aspect ratio             : 16/9
Frame rate                       : 25.000 fps
Resolution                       : 24 bits
Colorimetry                      : 4:2:0
Scan type                        : Progressive
Bits/(Pixel*Frame)               : 0.127
Stream size                      : 928 MiB (58%)
Language                         : English

Audio #1
ID                               : 4352 (0x1100)
Menu ID                          : 1 (0x1)
Format                           : PCM
Format settings, Endianness      : Big
Format settings, Sign            : Signed
Muxing mode                      : Blu-ray
Duration                         : 44mn 27s
Bit rate mode                    : Constant
Bit rate                         : 1 536 Kbps
Channel(s)                       : 2 channels
Channel positions                : Front: L R
Sampling rate                    : 48.0 KHz
Resolution                       : 16 bits
Stream size                      : 489 MiB (31%)

Audio #2
ID                               : 4353 (0x1101)
Menu ID                          : 1 (0x1)
Format                           : AC-3
Format/Info                      : Audio Coding 3
Duration                         : 44mn 27s
Bit rate mode                    : Constant
Bit rate                         : 192 Kbps
Channel(s)                       : 2 channels
Channel positions                : L R
Sampling rate                    : 44.1 KHz
Stream size                      : 61.1 MiB (4%)

picpicpicpic
Для увеличения картинки щелкните мышкой по превью

Этот торрент недоступен для скачивания без регистрации, однако доступен по публичной magnet-ссылке (источники с публичных трекеров). Перед использованием ссылки прочтите, пожалуйста Пользовательское соглашение, а также как можно дольше оставайтесь на раздаче! Для того, чтобы скачать сам торрент-файл (который видит больше источников), а также для того, чтобы поблагодарить релизера, вам необходимо зарегистрироваться. Если регистрироваться лень - вы можете также попробовать скачать релиз по нашим партнерским ссылкам ниже.

[underverse.su].t46902.torrent
Трекер: Зарегистрирован   [ 02.12.2014 16:13 ]  

Статус: проверено (by ZondeR at 02.12.2014 17:08)
Поблагодарили: пока никто не поблагодарил...
Тип торрента: публичный - доступные источники с открытых трекеров: 
Размер: 6,07 GB (занимает 1,39 DVDR, для записи нужно 2 болванки DVDR/RW)
 
 
Похожие темы
Форум Тема Автор Торрент Отв. Посл. сооб.
Discovery Динамо: Невероятный иллюзионист / Dynamo: Magician Impossible (1 сезон/4 из 4) [2012 г., Шоу, фокусы, SatRip] VO (НТВ+) ZondeR
0 | 0

4 | 1982

47

04.10.2012 18:33

Discovery Динамо: Невероятный иллюзионист / Dynamo: Magician Impossible (2 сезон / 4 из 4) [2012 г., Шоу, фокусы, SatRip] VO (НТВ+) ZondeR
0 | 0

1 | 2147

19

28.10.2012 20:02

Discovery Динамо: Невероятный иллюзионист / Dynamo: Magician Impossible (3 сезон / 4 из 4) [2013 г., Шоу, фокусы, IPTVRip] ZondeR
0 | 0

1 | 2093

11

21.10.2013 09:06


Яндекс.Метрика powered by Sphinx


В Н И М А Н И Е
Сайт не распространяет и не хранит электронные версии произведений, а лишь бесплатно и без коммерческой выгоды (не требуя взамен платы,
SMS и т.д.) предоставляет доступ к создаваемому пользователями каталогу ссылок на торрент-файлы, которые содержат только списки хеш-сумм.
Убедительная просьба с жалобами обращаться напрямую к пользователю, разместившему торрент файл.

Вверх