Loading...
Error

Антисоциалка / Antisocial (Коуди Кэлахан) [2013 г., Ужасы, Фантастика, Триллер, HDRip] DVO (RUS, TheAngelOfDeath & SweetySacrifice)

Статистика раздачи
Размер:  1,38 GB   |    Зарегистрирован:  2 года   |    Скачан:  12 раз

Полного источника не было: 10 месяцев

Сидов:  0  |  0 KB/s  ]   Личеров:  0  |  0 KB/s  ]

* - сиды/пиры с внешних источников

   
 
Автор Сообщение

Ведьмочка Пол:Жен

02-Дек-2014 05:40

Антисоциалка / Antisocial


Страна: Канада
Год выпуска: 2013
Жанр: Ужасы, Фантастика, Триллер
Продолжительность: 01:29:13
Режиссёр: Коуди Кэлахан
В ролях: Мишель Майлетт, Коуди Рэй Томпсон, Адам Кристи, Ана Алич, Ромэйн Вейт, Райан Баррет, Лорел Брандес, Бен Алексис, Чад Арчибальд, Стивен Бартелло
Сюжет фильма:
Пятеро друзей собираются вместе, чтобы отметить наступление Нового Года. Но вместо подарков от Деда Мороза их ждет неприятный сюрприз — за дверьми их дома разразилась эпидемия и неизвестный вирус сводит с ума людей. Что остается делать героям? Забаррикадировавшись, они держат оборону от нападок извне и медленно сходят с ума внутри…

Озвучивание:
  • Любительский, Двухголосный, Русский [TheAngelOfDeath & SweetySacrifice]
  • Оригинал, Английский

Качество видео: HDRip
Формат: AVI

Видео: XviD, 720x384 (1.85:1), 24.000 fps, ~1816 Кбит/сек
Аудио : AC-3, 384 Кбит/сек, 6 Каналов, 48.0 КГц



Общее
Полное имя : \Antisocial.2013.L2.HDRip.avi
Формат : AVI
Формат/Информация : Audio Video Interleave
Размер файла : 1,38 Гбайт
Продолжительность : 1 ч. 29 м.
Общий поток : 2209 Кбит/сек
Программа кодирования : VirtualDubMod 1.5.10.3 | www.virtualdub-fr.org || (build 2550/release)
Библиотека кодирования : VirtualDubMod build 2550/release

Видео
Идентификатор : 0
Формат : MPEG-4 Visual
Профиль формата : Advanced Simple@L5
Параметр BVOP формата : 1
Параметр QPel формата : Нет
Параметр GMC формата : Без точки перехода
Параметр матрицы формата : Выборочная
Идентификатор кодека : XVID
Идентификатор кодека/Подсказка : XviD
Продолжительность : 1 ч. 29 м.
Битрейт : 1816 Кбит/сек
Ширина : 720 пикселей
Высота : 384 пикселя
Соотношение сторон : 1,85:1
Частота кадров : 24,000 кадра/сек
Цветовое пространство : YUV
Субдискретизация насыщенности : 4:2:0
Битовая глубина : 8 бит
Тип развёртки : Прогрессивная
Метод сжатия : С потерями
Бит/(Пиксели*Кадры) : 0.274
Размер потока : 1,13 Гбайт (82%)
Библиотека кодирования : XviD 73

Аудио
Идентификатор : 1
Формат : AC-3
Формат/Информация : Audio Coding 3
Расширение режима : CM (complete main)
Параметр Endianness формата : Big
Идентификатор кодека : 2000
Продолжительность : 1 ч. 29 м.
Вид битрейта : Постоянный
Битрейт : 384 Кбит/сек
Каналы : 6 каналов
Расположение каналов : Front: L C R, Side: L R, LFE
Частота : 48,0 КГц
Битовая глубина : 16 бит
Метод сжатия : С потерями
Размер потока : 245 Мбайт (17%)
Выравнивание : Разделение по промежуткам
Продолжительность промежутка : 42 мс. (1,00 видеокадр)
Время предзагрузки промежутка : 500 мс.


picpicpicpicpic
Для увеличения картинки щелкните мышкой по превью

Этот торрент недоступен для скачивания без регистрации, однако доступен по публичной magnet-ссылке (источники с публичных трекеров). Перед использованием ссылки прочтите, пожалуйста Пользовательское соглашение, а также как можно дольше оставайтесь на раздаче! Для того, чтобы скачать сам торрент-файл (который видит больше источников), а также для того, чтобы поблагодарить релизера, вам необходимо зарегистрироваться. Если регистрироваться лень - вы можете также попробовать скачать релиз по нашим партнерским ссылкам ниже.

[underverse.su].t46823.torrent
Трекер: Зарегистрирован   [ 02.12.2014 05:40 ]  

Статус: проверено (by Ведьмочка at 02.12.2014 05:41)
Поблагодарили: пока никто не поблагодарил...
Тип торрента: публичный - доступные источники с открытых трекеров: 
Размер: 1,38 GB (занимает 0,31 DVDR, для записи нужно 1 болванка DVDR/RW)
 
 
Похожие темы
Форум Тема Автор Торрент Отв. Посл. сооб.
Зарубежное кино [DVDRip, Low-Res HDRip, и т.д.] Антисоциалка / Antisocial (Коуди Кэлахан) [2013 г., Ужасы, HDRip] VO Су-34
6 | 0

0 | 1567

18

07.01.2014 16:32

Зарубежное кино [DVDRip, Low-Res HDRip, и т.д.] Антисоциалка / Antisocial (Коуди Кэлахан) [2013 г., ужасы, BDRip-AVC] VO + Original Паукан
1 | 0

0 | 1235

15

11.02.2014 14:29


Яндекс.Метрика powered by Sphinx


В Н И М А Н И Е
Сайт не распространяет и не хранит электронные версии произведений, а лишь бесплатно и без коммерческой выгоды (не требуя взамен платы,
SMS и т.д.) предоставляет доступ к создаваемому пользователями каталогу ссылок на торрент-файлы, которые содержат только списки хеш-сумм.
Убедительная просьба с жалобами обращаться напрямую к пользователю, разместившему торрент файл.

Вверх