Loading...
Error

Викинг (1 сезон: 4 серии из 4) (Станислав Мареев) [2006 г., Боевик, SatRip]

Статистика раздачи
Размер:  2,73 GB   |    Зарегистрирован:  2 года   |    Скачан:  11 раз

Полного источника не было: 3 месяца 10 дней

Сидов:  0  |  0 KB/s  ]   Личеров:  0  |  0 KB/s  ]

* - сиды/пиры с внешних источников

   
 
Автор Сообщение

nemos Пол:Муж

24-Ноя-2014 05:21





Год выпуска: 2006
Жанр: Боевик
Страна: Россия
Режиссер: Станислав Мареев
В ролях: Евгений Сидихин, Александр Баширов, Николай Чиндяйкин, Андрей Федорцов, Александр Песков, Анна Лутцева, Евгений Ганелин, Юрий Ицков, Владимир Матвеев, Виктор Смирнов, Андрей Иванов, Алексей Девотченко, Сергей Русскин, Сергей Грачев, Николай Годовиков, Самвел Мужикян, Андрей Сиганов, Денис Моисеев, Алексей Кашников, Максим Бритвенков, Юрий Лазарев, Иван Лаптев, Александр Лосев, Андрей Семин
Качество видео: SatRip

Продолжительность: 00:43:21 серия
Формат: AVI
Видео: XviD, 720x400, 2 119 kbps
Аудио: русский, MP3 2.0, 128 kbps


Середина 1990-х. Один из гарнизонов Российского флота. Офицер-подводник, капитан третьего ранга Шведов получает задание от спецслужб, которым стало известно о планах террористов похитить с территории военно-морской базы оружие. Задание на первый взгляд кажется парадоксальным: усилить бдительность во время несения службы на берегу и действовать строго по уставу, не допуская нарушения дисциплины со стороны подчиненных. В реальности всё оказывается гораздо сложнее, и Шведову приходится вступить в противоборство не только с курьерами террористов, но и с местной организованной преступностью и с пособниками бандитов на территории базы. Во время проведения операции случается так, что бандиты убивают руководителя операции, полковника ГРУ Скобелева, и офицеру-подводнику приходится действовать самостоятельно в крайне сложных условиях, чтобы сорвать замыслы террористов и отомстить за гибель своих боевых друзей.

Код:

E:\Фильмы Раздача-1\Viking.4.serii.iz.4.2006.XviD.SATRip\Viking.4.seria.iz.4.2006.XviD.SATRip.avi
   General
      Complete name : E:\Фильмы Раздача-1\Viking.4.serii.iz.4.2006.XviD.SATRip\Viking.4.seria.iz.4.2006.XviD.SATRip.avi
      Format : AVI
      Format/Info : Audio Video Interleave
      File size : 699 MiB
      Duration : 43mn 21s
      Overall bit rate : 2 254 Kbps
      Writing application : VirtualDubMod 1.5.4.1 (build 2178/release)
      Writing library : VirtualDubMod build 2178/release
   Video #0
      ID : 0
      Format : MPEG-4 Visual
      Format profile : Advanced Simple@L5
      Format settings, BVOP : 1
      Format settings, QPel : No
      Format settings, GMC : No warppoints
      Format settings, Matrix : Custom
      Codec ID : XVID
      Codec ID/Hint : XviD
      Duration : 43mn 21s
      Bit rate : 2 119 Kbps
      Width : 720 pixels
      Height : 400 pixels
      Display aspect ratio : 16:9
      Frame rate : 25.000 fps
      Color space : YUV
      Chroma subsampling : 4:2:0
      Bit depth : 8 bits
      Scan type : Progressive
      Compression mode : Lossy
      Bits/(Pixel*Frame) : 0.294
      Stream size : 657 MiB (94%)
      Writing library : XviD 1.1.2 (UTC 2006-11-01)
   Audio #1
      ID : 1
      Format : MPEG Audio
      Format version : Version 1
      Format profile : Layer 3
      Mode : Joint stereo
      Mode extension : MS Stereo
      Codec ID : 55
      Codec ID/Hint : MP3
      Duration : 43mn 21s
      Bit rate mode : Constant
      Bit rate : 128 Kbps
      Channel(s) : 2 channels
      Sampling rate : 48.0 KHz
      Compression mode : Lossy
      Stream size : 39.7 MiB (6%)
      Alignment : Aligned on interleaves
      Interleave, duration : 80 ms (2.00 video frames)
      Interleave, preload duration : 504 ms
      Writing library : LAME3.97
      Encoding settings : -m j -V 4 -q 2 -lowpass 17 -b 128
picpicpicpicpicpicpicpicpicpicpicpicpicpicpicpicpicpicpic
Для увеличения картинки щелкните мышкой по превью

Этот торрент недоступен для скачивания без регистрации, однако доступен по публичной magnet-ссылке (источники с публичных трекеров). Перед использованием ссылки прочтите, пожалуйста Пользовательское соглашение, а также как можно дольше оставайтесь на раздаче! Для того, чтобы скачать сам торрент-файл (который видит больше источников), а также для того, чтобы поблагодарить релизера, вам необходимо зарегистрироваться. Если регистрироваться лень - вы можете также попробовать скачать релиз по нашим партнерским ссылкам ниже.

[underverse.su].t46560.torrent
Трекер: Зарегистрирован   [ 24.11.2014 05:22 ]  

Статус: проверено (by nemos at 24.11.2014 05:22)
Поблагодарили: 1 человек
Тип торрента: публичный - доступные источники с открытых трекеров: 
Размер: 2,73 GB (занимает 0,62 DVDR, для записи нужно 1 болванка DVDR/RW)
 
 

Яндекс.Метрика powered by Sphinx


В Н И М А Н И Е
Сайт не распространяет и не хранит электронные версии произведений, а лишь бесплатно и без коммерческой выгоды (не требуя взамен платы,
SMS и т.д.) предоставляет доступ к создаваемому пользователями каталогу ссылок на торрент-файлы, которые содержат только списки хеш-сумм.
Убедительная просьба с жалобами обращаться напрямую к пользователю, разместившему торрент файл.

Вверх