Loading...
Error

Викинг (2 сезон: 4 серии из 4) (Станислав Мареев) [2014 г., Детектив, боевик, SatRip]

Статистика раздачи
Размер:  2,33 GB   |    Зарегистрирован:  2 года   |    Скачан:  9 раз
Сидов:  1  |  0 KB/s  ]   Личеров:  0  |  0 KB/s  ]

* - сиды/пиры с внешних источников

   
 
Автор Сообщение

nemos Пол:Муж

24-Ноя-2014 04:15



Год выпуска: премьера (РФ) 22 ноября 2014
Жанр: Детектив, боевик
Страна: Россия
Режиссер: Станислав Мареев
В ролях: Евгений Сидихин, Нина Курпякова, Игорь Несветаев, Анатолий Котенёв, Александр Мосолов
Качество видео: SatRip

Продолжительность: 00:43:05 серия
Формат: AVI
Видео: XviD, 720x400, 1800 kbps
Аудио: русский, MP3 2.0, 128 kbps
Наше время. Молодой следователь Денис Шевельков переводится в СК маленького городка, где живет его невеста. Ему сразу поручают дело об убийстве офицера морфлота. Выясняется, что покойный занимался контрабандой оружия в связке с местной мафией, и бандиты убили его, заподозрив в подрыве склада с товаром. Но на самом деле склад взорвал неуловимый борец со злом Викинг, которого все считают давно погибшим, а он продолжает бой с бандитизмом своими методами. Викинг и Шевельков атакуют мафию с двух сторон: первый действует своими старыми методами, тайно, по-партизански, не надеясь на законное правосудие, творит его своими руками, второй, молодой идеалист, следует букве закона. И пока они борются порознь, их усилия тщетны – слишком крепка мафиозная сеть, которую поддерживают и коррумпированная полиция, и продажные военные. Но настанет момент, когда наши герои встанут плечом к плечу и, преодолев все противоречия, многому научившись друг у друга, сокрушат своих врагов.

Код:

E:\Фильмы Раздача-1\Viking-2.2014.SATRip\Viking-2.4.seriya.2014.SATRip.avi
   General
      Complete name : E:\Фильмы Раздача-1\Viking-2.2014.SATRip\Viking-2.4.seriya.2014.SATRip.avi
      Format : AVI
      Format/Info : Audio Video Interleave
      File size : 597 MiB
      Duration : 43mn 5s
      Overall bit rate : 1 937 Kbps
      Writing application : VirtualDubMod 1.5.10.3 | www.virtualdub-fr.org || (build 2550/release)
      Writing library : VirtualDub build 32507/release
   Video #0
      ID : 0
      Format : MPEG-4 Visual
      Format profile : Advanced Simple@L5
      Format settings, BVOP : 2
      Format settings, QPel : No
      Format settings, GMC : No warppoints
      Format settings, Matrix : Default (MPEG)
      Codec ID : XVID
      Codec ID/Hint : XviD
      Duration : 43mn 5s
      Bit rate : 1 800 Kbps
      Width : 720 pixels
      Height : 400 pixels
      Display aspect ratio : 16:9
      Frame rate : 25.000 fps
      Color space : YUV
      Chroma subsampling : 4:2:0
      Bit depth : 8 bits
      Scan type : Progressive
      Compression mode : Lossy
      Bits/(Pixel*Frame) : 0.250
      Stream size : 555 MiB (93%)
      Writing library : XviD 1.2.1 (UTC 2008-12-04)
   Audio #1
      ID : 1
      Format : MPEG Audio
      Format version : Version 1
      Format profile : Layer 3
      Mode : Joint stereo
      Mode extension : MS Stereo
      Codec ID : 55
      Codec ID/Hint : MP3
      Duration : 43mn 5s
      Bit rate mode : Constant
      Bit rate : 128 Kbps
      Channel(s) : 2 channels
      Sampling rate : 48.0 KHz
      Compression mode : Lossy
      Stream size : 39.5 MiB (7%)
      Alignment : Aligned on interleaves
      Interleave, duration : 40 ms (1.00 video frame)
      Interleave, preload duration : 504 ms
      Writing library : LAME3.99r
      Encoding settings : -m j -V 4 -q 2 -lowpass 17 -b 128
picpicpicpicpicpicpicpicpicpicpicpicpicpicpic
Для увеличения картинки щелкните мышкой по превью

Этот торрент недоступен для скачивания без регистрации, однако доступен по публичной magnet-ссылке (источники с публичных трекеров). Перед использованием ссылки прочтите, пожалуйста Пользовательское соглашение, а также как можно дольше оставайтесь на раздаче! Для того, чтобы скачать сам торрент-файл (который видит больше источников), а также для того, чтобы поблагодарить релизера, вам необходимо зарегистрироваться. Если регистрироваться лень - вы можете также попробовать скачать релиз по нашим партнерским ссылкам ниже.

[underverse.su].t46559.torrent
Трекер: Зарегистрирован   [ 24.11.2014 04:15 ]  

Статус: проверено (by nemos at 24.11.2014 04:15)
Поблагодарили: 2 человека
Тип торрента: публичный - доступные источники с открытых трекеров: 
Размер: 2,33 GB (занимает 0,53 DVDR, для записи нужно 1 болванка DVDR/RW)
 
 

Яндекс.Метрика powered by Sphinx


В Н И М А Н И Е
Сайт не распространяет и не хранит электронные версии произведений, а лишь бесплатно и без коммерческой выгоды (не требуя взамен платы,
SMS и т.д.) предоставляет доступ к создаваемому пользователями каталогу ссылок на торрент-файлы, которые содержат только списки хеш-сумм.
Убедительная просьба с жалобами обращаться напрямую к пользователю, разместившему торрент файл.

Вверх