Loading...
Error

Две легенды (1-8 серии из 8) (Вячеслав Кириллов) [2014 г., боевик, SatRip]

Статистика раздачи
Размер:  4,57 GB   |    Зарегистрирован:  2 года   |    Скачан:  19 раз

Полного источника не было: 11 дней

Сидов:  0  |  0 KB/s  ]   Личеров:  0  |  0 KB/s  ]

* - сиды/пиры с внешних источников

   
 
Автор Сообщение

nemos Пол:Муж

24-Ноя-2014 03:49

Две легенды (1-8 серии из 8)


Год выпуска: 2014
Жанр: боевик
Страна: Россия
Режиссер: Вячеслав Кириллов
В ролях: Артём Крылов, Анна Попова, Никита Прозоровский-Семёнов, Петар Зекавица, Олег Гераськин, Кирилл Бурдихин, Евгения Бурдихина, Андрей Чуманов, Валерий Сыроваткин, Екатерина Гусева (IV), Арника Алури
Сюжет фильма:
Он – учитель математики в обычной московской школе. Она – преподаватель курса биологии в престижном колледже. Однажды герои оказываются в самом разгаре перестрелки в заброшенном здании где-то в Европе. Едва не уничтожив друг друга, новым знакомым чудом удается выяснить, что оба они работают на российские спецслужбы, но в разных подразделениях. Общими усилиями террорист нейтрализован, а в самых верхах российских спецслужб принимают решение объединить тихих «ботаников» в секретный боевую ячейку российской разведки, которой предстоит выполнять самые деликатные поручения по всему миру.


Качество видео: SatRip

Продолжительность: 00:40:04 серия
Формат: AVI
Видео: XviD, 720x400, 1800 kbps
Аудио: русский, MP3 2.0, 128 kbps

Код:

E:\Фильмы Раздача-1\Dve.legendy.SATRip\Dve.legendy.08.SATRip.avi
   General
      Complete name : E:\Фильмы Раздача-1\Dve.legendy.SATRip\Dve.legendy.08.SATRip.avi
      Format : AVI
      Format/Info : Audio Video Interleave
      File size : 555 MiB
      Duration : 40mn 4s
      Overall bit rate : 1 938 Kbps
      Writing application : VirtualDubMod 1.5.10.3 | www.virtualdub-fr.org || (build 2550/release)
      Writing library : VirtualDubMod build 2550/release
   Video #0
      ID : 0
      Format : MPEG-4 Visual
      Format profile : Advanced Simple@L5
      Format settings, BVOP : 2
      Format settings, QPel : No
      Format settings, GMC : No warppoints
      Format settings, Matrix : Default (H.263)
      Codec ID : XVID
      Codec ID/Hint : XviD
      Duration : 40mn 4s
      Bit rate : 1 800 Kbps
      Width : 720 pixels
      Height : 400 pixels
      Display aspect ratio : 16:9
      Frame rate : 25.000 fps
      Color space : YUV
      Chroma subsampling : 4:2:0
      Bit depth : 8 bits
      Scan type : Progressive
      Compression mode : Lossy
      Bits/(Pixel*Frame) : 0.250
      Stream size : 516 MiB (93%)
      Writing library : XviD 1.2.1 (UTC 2008-12-04)
   Audio #1
      ID : 1
      Format : MPEG Audio
      Format version : Version 1
      Format profile : Layer 3
      Mode : Joint stereo
      Mode extension : MS Stereo
      Codec ID : 55
      Codec ID/Hint : MP3
      Duration : 40mn 4s
      Bit rate mode : Constant
      Bit rate : 128 Kbps
      Channel(s) : 2 channels
      Sampling rate : 48.0 KHz
      Compression mode : Lossy
      Stream size : 36.7 MiB (7%)
      Alignment : Aligned on interleaves
      Interleave, duration : 40 ms (1.00 video frame)
      Interleave, preload duration : 504 ms
      Writing library : LAME3.99r
      Encoding settings : -m j -V 4 -q 9 -lowpass 17 -b 128
picpicpicpicpicpic
Для увеличения картинки щелкните мышкой по превью

Этот торрент недоступен для скачивания без регистрации, однако доступен по публичной magnet-ссылке (источники с публичных трекеров). Перед использованием ссылки прочтите, пожалуйста Пользовательское соглашение, а также как можно дольше оставайтесь на раздаче! Для того, чтобы скачать сам торрент-файл (который видит больше источников), а также для того, чтобы поблагодарить релизера, вам необходимо зарегистрироваться. Если регистрироваться лень - вы можете также попробовать скачать релиз по нашим партнерским ссылкам ниже.

[underverse.su].t46558.torrent
Трекер: Зарегистрирован   [ 24.11.2014 03:49 ]  

Статус: проверено (by nemos at 24.11.2014 03:49)
Поблагодарили: 2 человека
Тип торрента: публичный - доступные источники с открытых трекеров: 
Размер: 4,57 GB (занимает 1,04 DVDR, для записи нужно 2 болванки DVDR/RW)
 
 

Яндекс.Метрика powered by Sphinx


В Н И М А Н И Е
Сайт не распространяет и не хранит электронные версии произведений, а лишь бесплатно и без коммерческой выгоды (не требуя взамен платы,
SMS и т.д.) предоставляет доступ к создаваемому пользователями каталогу ссылок на торрент-файлы, которые содержат только списки хеш-сумм.
Убедительная просьба с жалобами обращаться напрямую к пользователю, разместившему торрент файл.

Вверх