Loading...
Error

Кейт и Лео / Kate & Leopold (Джеймс Мэнголд / James Mangold) [2001 г., фэнтези, комедия, мелодрама, BDRip-AVC] Dub + Original (Eng) + Sub (Rus, Eng)

Статистика раздачи
Размер:  2,91 GB   |    Зарегистрирован:  1 год 9 месяцев   |    Скачан:  2 раза

Полного источника не было: 6 месяцев

Сидов:  0  |  0 KB/s  ]   Личеров:  0  |  0 KB/s  ]

* - сиды/пиры с внешних источников

   
 
Автор Сообщение

GUree Пол:Муж

06-Июл-2009 23:33

Кейт и Лео / Kate & Leopold


Год выпуска: 2001
Жанр: фэнтези, комедия, мелодрама
Страна: США
Режиссер: Джеймс Мэнголд / James Mangold
В ролях: Мег Райан, Хью Джекман, Лив Шрайбер, Брекин Мейер, Наташа Лионни, Брэдли Уитфорд, Пэкстон Уайтхед, Сполдинг Грей, Джош Стэмберг, Мэттью Суссман

Сюжет фильма: Сквозь прореху во времени Лео, герцог Олбанский, попадает в будущее, а точнее — в современный Нью-Йорк. Обаятельный джентльмен XIX столетия неожиданно оказывается в стремительном мире, где успешно завоевывает высоты деловая женщина — Кейт Маккей.
Невероятное случилось, и они встретились! Теперь Лео нельзя оставлять без присмотра ни на минуту! Во всяком случае, до тех пор, пока он не сможет вернуться обратно…


Личная оценка: 10 - всем советую
  • Мировая премьера: 25 декабря 2001
  • Российская премьера: 7 марта 2002, «West»
   

Качество видео: BDRip-AVC

Продолжительность: 01:58:21
Видео: кодек: x264, Frame rate: 23.976 fps, размер кадра: 1024x568, битрейт: 2557 kbps
Аудио #1: язык: русский, перевод: дублированный (дубляж), кодек: AC3 5.1, битрейт: 448 kbps
Аудио #2: язык: английский, перевод: оригинал, кодек: AC3 5.1, битрейт: 448 kbps
Субтитры #1: тип: вшитые отключаемые, язык: русский
Субтитры #2: тип: вшитые отключаемые, язык: английский






General
Complete name : Kate_and_Leo.2001.BDRip.AVC.mkv
Format : Matroska
File size : 2.91 GiB
Duration : 1h 58mn
Overall bit rate : 3 524 Kbps
Movie name : -=GUree=-
Encoded date : UTC 2010-06-01 03:54:26
Writing application : mkvmerge v3.4.0 ('Rapunzel') сборка от May 15 2010 09:38:20
Writing library : libebml v0.8.0 + libmatroska v0.9.0

Video
ID : 1
Format : AVC
Format/Info : Advanced Video Codec
Format profile : High@L4.1
Format settings, CABAC : Yes
Format settings, ReFrames : 8 frames
Muxing mode : Container profile=Unknown@4.1
Codec ID : V_MPEG4/ISO/AVC
Duration : 1h 58mn
Bit rate : 2 627 Kbps
Width : 1 024 pixels
Height : 568 pixels
Display aspect ratio : 16:9
Frame rate : 23.976 fps
Color space : YUV
Chroma subsampling : 4:2:0
Bit depth : 8 bits
Scan type : Progressive
Bits/(Pixel*Frame) : 0.188
Stream size : 2.11 GiB (73%)
Writing library : x264 core 92 r1510 33d382a
Encoding settings : cabac=1 / ref=8 / deblock=1:-2:-1 / analyse=0x3:0x113 / me=tesa / subme=10 / psy=1 / psy_rd=1.00:0.40 / mixed_ref=1 / me_range=32 / chroma_me=1 / trellis=2 / 8x8dct=1 / cqm=0 / deadzone=21,11 / fast_pskip=0 / chroma_qp_offset=-4 / threads=6 / sliced_threads=0 / nr=0 / decimate=0 / interlaced=0 / constrained_intra=0 / bframes=6 / b_pyramid=2 / b_adapt=2 / b_bias=0 / direct=3 / wpredb=1 / wpredp=2 / keyint=250 / keyint_min=25 / scenecut=40 / intra_refresh=0 / rc_lookahead=60 / rc=2pass / mbtree=1 / bitrate=2627 / ratetol=1.0 / qcomp=0.70 / qpmin=10 / qpmax=51 / qpstep=4 / cplxblur=20.0 / qblur=0.5 / vbv_maxrate=50000 / vbv_bufsize=50000 / ip_ratio=1.40 / aq=1:0.90 / nal_hrd=none

Audio #1
ID : 2
Format : AC-3
Format/Info : Audio Coding 3
Mode extension : CM (complete main)
Codec ID : A_AC3
Duration : 1h 58mn
Bit rate mode : Constant
Bit rate : 448 Kbps
Channel(s) : 6 channels
Channel positions : Front: L C R, Side: L R, LFE
Sampling rate : 48.0 KHz
Stream size : 379 MiB (13%)
Title : AC3 5.1 448Kb/s
Language : Russian

Audio #2
ID : 3
Format : AC-3
Format/Info : Audio Coding 3
Mode extension : CM (complete main)
Codec ID : A_AC3
Duration : 1h 58mn
Bit rate mode : Constant
Bit rate : 448 Kbps
Channel(s) : 6 channels
Channel positions : Front: L C R, Side: L R, LFE
Sampling rate : 48.0 KHz
Stream size : 379 MiB (13%)
Title : AC3 5.1 448Kb/s
Language : English

Text #1
ID : 4
Format : UTF-8
Codec ID : S_TEXT/UTF8
Codec ID/Info : UTF-8 Plain Text
Language : Russian

Text #2
ID : 5
Format : UTF-8
Codec ID : S_TEXT/UTF8
Codec ID/Info : UTF-8 Plain Text
Language : English

Этот торрент недоступен для скачивания без регистрации, однако доступен по публичной magnet-ссылке (источники с публичных трекеров). Перед использованием ссылки прочтите, пожалуйста Пользовательское соглашение, а также как можно дольше оставайтесь на раздаче! Для того, чтобы скачать сам торрент-файл (который видит больше источников), а также для того, чтобы поблагодарить релизера, вам необходимо зарегистрироваться. Если регистрироваться лень - вы можете также попробовать скачать релиз по нашим партнерским ссылкам ниже.

[underverse.su].t4150.torrent
Трекер: Зарегистрирован   [ 28.02.2015 15:25 ]  

Статус: проверено (by 90ytr90 at 28.02.2015 15:25)
Поблагодарили: 3 человека
Тип торрента: публичный - доступные источники с открытых трекеров: 
Размер: 2,91 GB (занимает 2/3 DVDR, для записи нужно 1 болванка DVDR/RW)
 
 
Похожие темы
Форум Тема Автор Торрент Отв. Посл. сооб.
Зарубежное кино [DVDRip, Low-Res HDRip, и т.д.] Кейт и Лео / Kate & Leopold (Джеймс Мэнголд / James Mangold) [2001 г., фэнтези, мелодрама, комедия, HDRip] [Director's cut] Dub 90ytr90
4 | 0

0 | 339

2

28.02.2015 13:43

Зарубежное кино [DVDRip, Low-Res HDRip, и т.д.] Кейт и Лео / Kate & Leopold (Джеймс Мэнголд / James Mangold) [2001 г., фэнтези, мелодрама, комедия, HDRip] [Director's cut] Dub 90ytr90
5 | 1

0 | 380

2

28.02.2015 15:04

Зарубежное кино [DVDRip, Low-Res HDRip, и т.д.] Кейт и Лео / Kate & Leopold (Джеймс Мэнголд / James Mangold) [2001 г., фэнтези, мелодрама, комедия, BDRip] [Director's cut] Dub + Original (Eng) + Sub (Rus, Eng) 90ytr90
16 | 4

1 | 354

2

28.02.2015 15:17

Зарубежное кино [DVDRip, Low-Res HDRip, и т.д.] Кейт и Лео / Kate & Leopold (Джеймс Мэнголд / James Mangold) [2001 г., фэнтези, мелодрама, комедия, BDRip-AVC] Dub + Sub (Rus, Eng) 90ytr90
45 | 1

0 | 395

6

28.02.2015 15:43



Последний раз редактировалось: GUree (01.06.2010 05:35), всего редактировалось 18 раз(а)

holod1985 Пол:Муж

07-Июл-2009 00:05

Хороший фильм...мне понравился

niko65 

07-Июл-2009 08:09

GUree - спасибо, обязательно заберу и с удовольствием пересмотрю в качестве!

GUree Пол:Муж

07-Авг-2009 13:04

ПОМЕНЯЛ РИП

niko65 

07-Авг-2009 14:21

GUree - нет предела совершенству! :)

GUree Пол:Муж

20-Фев-2010 18:19

Опять поменял Рип, обнаружил, что звук срезан до 12КГц.... Терь всё нормально!

Ekoterishka Пол:Жен

25-Май-2013 08:44

Дайте скорость!

90ytr90 

28-Фев-2015 15:27

Полного источника не было: 2 года 4 месяца. Раздача восстановлена\заменена.

Скриншоты, к сожалению, достать не удалось.

Яндекс.Метрика powered by Sphinx


В Н И М А Н И Е
Сайт не распространяет и не хранит электронные версии произведений, а лишь бесплатно и без коммерческой выгоды (не требуя взамен платы,
SMS и т.д.) предоставляет доступ к создаваемому пользователями каталогу ссылок на торрент-файлы, которые содержат только списки хеш-сумм.
Убедительная просьба с жалобами обращаться напрямую к пользователю, разместившему торрент файл.

Вверх