Loading...
Error

Костолом / Mean Machine (Барри Сколник / Barry Skolnick) [2001 г., комедия, драма, спорт, DVDRip] MVO + Original (Eng)

Статистика раздачи
Размер:  1,46 GB   |    Зарегистрирован:  2 года   |    Скачан:  4 раза
Сидов:  1  |  0 KB/s  ]   Личеров:  0  |  0 KB/s  ]

* - сиды/пиры с внешних источников

   
 
Автор Сообщение

Ramzes37 Пол:Муж

23-Ноя-2014 10:35

Костолом / Mean Machine


Год выпуска: 2001
Жанр: комедия, драма, спорт
Страна: США , Великобритания
Режиссер: Барри Сколник / Barry Skolnick
В ролях: Винни Джонс, Джейсон Стэтхэм, Дэвид Келли, Дэвид Хеммингс, Ральф Браун, Вэс Блэквуд, Робби Ги, Джофф Белл, Сэлли Филлипс, Дэнни Дайер.
Сюжет фильма:
У Дэнни Михэна есть все; деньги, слава, дорогие машины. Он — капитан английской национальной команды по футболу. Но однажды идиллия нарушается; Дэнни получает трехлетний тюремный срок за нападение на офицера полиции в состоянии алкогольного опьянения.

Начальник тюрьмы, в которой оказался Дэнни, вложил немало собственных денег в создание футбольной команды и решил заполучить маститого футболиста в качестве тренера для своей команды. Его мечта — выиграть «тюремную лигу».

Но Дэнни создает команду из заключенных, которая должна сыграть первый матч со своими тюремщиками. Начальник тюрьмы не возражает; он не верит, что заключенные могут выиграть.
  • Мировая премьера: 26 декабря 2001
  • Российская премьера: 27 июня 2002

   
Качество видео: DVDRip

Продолжительность: 01:39:00
Формат: AVI
Видео: XviD, 720x400 (1.80:1), 23.976 fps, 1830 kbps, 0.27 bit/pixel
Аудио #1: русский, двухголосый закадровый [профессиональный], MP3 2.0, 128 kbps
Аудио #2: английский, оригинал, MP3 2.0, 128 kbps

picpicpic
Для увеличения картинки щелкните мышкой по превью

Этот торрент недоступен для скачивания без регистрации, однако доступен по публичной magnet-ссылке (источники с публичных трекеров). Перед использованием ссылки прочтите, пожалуйста Пользовательское соглашение, а также как можно дольше оставайтесь на раздаче! Для того, чтобы скачать сам торрент-файл (который видит больше источников), а также для того, чтобы поблагодарить релизера, вам необходимо зарегистрироваться. Если регистрироваться лень - вы можете также попробовать скачать релиз по нашим партнерским ссылкам ниже.

[underverse.su].t46532.torrent
Трекер: Зарегистрирован   [ 26.11.2014 21:18 ]  

Статус: проверено (by 90ytr90 at 26.11.2014 21:19)
Поблагодарили: пока никто не поблагодарил...
Тип торрента: публичный - доступные источники с открытых трекеров: 
Размер: 1,46 GB (занимает 1/3 DVDR, для записи нужно 1 болванка DVDR/RW)
 
 


Последний раз редактировалось: Ramzes37 (23.11.2014 12:00), всего редактировалось 6 раз(а)

Ramzes37 Пол:Муж

23-Ноя-2014 11:00

проверьте все ли так . Это мой первый фильм

Ведьмочка Пол:Жен

23-Ноя-2014 13:48

- Замените пожалуйста скриншоты, они не соответствуют указанному разрешению. Сделайте сами. В помощь: http://underverse.su/viewtopic.php?t=14
- Предоставьте отчёт MediaInfo.
- Сэмпл мёртвый. Срок хранения на хостингах истёк.

90ytr90 

23-Ноя-2014 14:31

Ну вообщем, как я и говорил, в фильме 2 дорожки
General
Complete name : D:\uTorrent\Kostolom_2001_DVDRip_[Paha7].avi
Format : AVI
Format/Info : Audio Video Interleave
File size : 1.46 GiB
Duration : 1h 39mn
Overall bit rate : 2 102 Kbps
Movie name : Костолом / Mean Machine (2001)
Director : Paha7
Genre : Sports
Law rating : Unrated
Writing application : VirtualDubModRus 1.5.10.2 (build 2542/release) VirtualDubMod build 2542/release
Original source form/Name : Movie

Video
ID : 0
Format : MPEG-4 Visual
Format profile : Advanced Simple@L5
Format settings, BVOP : Yes
Format settings, QPel : No
Format settings, GMC : No warppoints
Format settings, Matrix : Default (MPEG)
Codec ID : XVID
Codec ID/Hint : XviD
Duration : 1h 39mn
Bit rate : 1 832 Kbps
Width : 720 pixels
Height : 400 pixels
Display aspect ratio : 16:9
Frame rate : 23.976 fps
Resolution : 8 bits
Colorimetry : 4:2:0
Scan type : Progressive
Bits/(Pixel*Frame) : 0.265
Stream size : 1.27 GiB (87%)
Writing library : XviD 1.2.0.dev47 (UTC 2006-11-01)

Audio #1
ID : 1
Format : MPEG Audio
Format version : Version 1
Format profile : Layer 3
Format_Settings_Mode : Joint stereo
Format_Settings_ModeExtension : MS Stereo
Codec ID : 55
Codec ID/Hint : MP3
Duration : 1h 39mn
Bit rate mode : Constant
Bit rate : 128 Kbps
Channel(s) : 2 channels
Sampling rate : 48.0 KHz
Stream size : 90.8 MiB (6%)
Alignment : Aligned on interleaves
Interleave, duration : 42 ms (1.00 video frame)
Interleave, preload duration : 504 ms
Writing library : LAME3.97
Encoding settings : -m j -V 4 -q 2 -lowpass 17 -b 128
Language : Undefined

Audio #2
ID : 2
Format : MPEG Audio
Format version : Version 1
Format profile : Layer 3
Format_Settings_Mode : Joint stereo
Format_Settings_ModeExtension : MS Stereo
Codec ID : 55
Codec ID/Hint : MP3
Duration : 1h 39mn
Bit rate mode : Constant
Bit rate : 128 Kbps
Channel(s) : 2 channels
Sampling rate : 48.0 KHz
Stream size : 90.8 MiB (6%)
Alignment : Aligned on interleaves
Interleave, duration : 42 ms (1.00 video frame)
Interleave, preload duration : 504 ms
Writing library : LAME3.97b
Encoding settings : -m j -V 4 -q 2 -lowpass 17 -b 128

Ramzes37 Пол:Муж

23-Ноя-2014 16:37

он вообще скачивается ?

90ytr90 

23-Ноя-2014 17:06

Ramzes37 писал(а):

он вообще скачивается ?
Я закачал из другого места и натравил потом на него здешний тф - все совпало, кроме названия. Должен скачиваться, ежели придут желающие.

Надо описание поправить (вторую дорожку указать) ну и то, о чем уже написано было.
Аудио #1: русский, двухголосый закадровый [профессиональный], MP3 2.0, 128 kbps
Аудио #2: английский, оригинал, MP3 2.0, 128 kbps

picpicpic
Для увеличения картинки щелкните мышкой по превью

90ytr90 

26-Ноя-2014 21:22

Раздача восстановлена/заменена на аналогичную ввиду отсутствия тф.

Желающим присоединиться к раздаче следует скачать тф и перехешировать раздачу.

Яндекс.Метрика powered by Sphinx


В Н И М А Н И Е
Сайт не распространяет и не хранит электронные версии произведений, а лишь бесплатно и без коммерческой выгоды (не требуя взамен платы,
SMS и т.д.) предоставляет доступ к создаваемому пользователями каталогу ссылок на торрент-файлы, которые содержат только списки хеш-сумм.
Убедительная просьба с жалобами обращаться напрямую к пользователю, разместившему торрент файл.

Вверх