Loading...
Error

24 часа / Trapped (Луис Мандоки) [2002 г., триллер, драма, криминальный, BDRip-AVC] Dub(RUS) + Subs(RUS, ENG)

Статистика раздачи
Размер:  4,36 GB   |    Зарегистрирован:  2 года   |    Скачан:  0 раз

Полного источника не было: 5 месяцев 22 дня

Сидов:  0  |  0 KB/s  ]   Личеров:  0  |  0 KB/s  ]

* - сиды/пиры с внешних источников

   
 
Автор Сообщение

andryan Пол:Муж

22-Ноя-2014 13:49

24 часа / Trapped


Год выпуска: 2002
Жанр: триллер, драма, криминальный
Страна: США , Германия
Режиссер: Луис Мандоки
В ролях: Шарлиз Терон, Кортни Лав, Стюарт Таунсенд, Кевин Бейкон, Прюитт Тэйлор Винс, Дакота Фаннинг, Стив Рэнкин, Гари Чок, Джоди Маркелл, Мэтт Коби
Сюжет фильма:

«Это было идеальное преступление, пока она не перестала быть идеальной жертвой...»

Трое преступников — супруги Хики Джо и Черил и их кузен Джой Марвин — настолько хорошо знают среду, в которой живут, что сумели разработать безукоризненный план вымогательства денег у состоятельных семей. Они действуют уверенно, умело и успешно и настолько хорошо заметают свои следы, что после них остаются только перепуганные жертвы, которые предпочитают хранить молчание, ибо рады уже тому, что остались живы.
Но на этот раз они ошиблись в выборе семьи, которая предпочла дать отпор преступникам, вследствие чего события приняли неожиданный поворот…

  • Мировая премьера:     20 сентября 2002
  • Российская премьера:   22 ноября 2002
  • Бюджет:   $ 30 000 000


Качество видео: BDRip-AVC

Продолжительность: 01:45:46
Формат: MKV
Видео: MPEG-4 AVC, 1280х720, 5449 kbps
Аудио: русский, дублированный, AC3 5.1, 448 kbps
Субтитры #1: тип: вшитые отключаемые, русский, формат: SRT
Субтитры #2: тип: вшитые отключаемые, английский, формат: SRT

Код:

Общее
Уникальный идентификатор                 : 195008948885096639648796143822004366499 (0x92B55B7F19604D389941E4DC53312CA3)
Полное имя                               : F:\underverse\24часа_Trapped\Trapped.BDRip.720\Trapped.mkv
Формат                                   : Matroska
Версия формата                           : Version 4 / Version 2
Размер файла                             : 4,36 Гбайт
Продолжительность                        : 1 ч. 45 м.
Общий поток                              : 5895 Кбит/сек
Дата кодирования                         : UTC 2014-03-25 04:15:57
Программа кодирования                    : mkvmerge v6.3.0 ('You can't stop me!') built on Jun 28 2013 20:09:41
Библиотека кодирования                   : libebml v1.3.0 + libmatroska v1.4.0

Видео
Идентификатор                            : 1
Формат                                   : AVC
Формат/Информация                        : Advanced Video Codec
Профиль формата                          : High@L4.1
Параметр CABAC формата                   : Да
Параметр ReFrames формата                : 4 кадра
Идентификатор кодека                     : V_MPEG4/ISO/AVC
Продолжительность                        : 1 ч. 45 м.
Битрейт                                  : 5449 Кбит/сек
Ширина                                   : 1280 пикселей
Высота                                   : 720 пикселей
Соотношение сторон                       : 16:9
Соотношение сторон в оригинале           : 16:9
Режим частоты кадров                     : Постоянный
Частота кадров                           : 23,976 кадра/сек
Цветовое пространство                    : YUV
Субдискретизация насыщенности            : 4:2:0
Битовая глубина                          : 8 бит
Тип развёртки                            : Прогрессивная
Бит/(Пиксели*Кадры)                      : 0.247
Размер потока                            : 3,94 Гбайт (90%)
Заголовок                                : Trapped
Библиотека кодирования                   : x264 core 130 r2273 b3065e6
Настройки программы                      : cabac=1 / ref=4 / deblock=1:-1:-1 / analyse=0x3:0x113 / me=umh / subme=9 / psy=1 / psy_rd=1.00:0.15 / mixed_ref=0 / me_range=16 / chroma_me=1 / trellis=0 / 8x8dct=1 / cqm=0 / deadzone=21,11 / fast_pskip=1 / chroma_qp_offset=-2 / threads=6 / lookahead_threads=1 / sliced_threads=0 / nr=0 / decimate=1 / interlaced=0 / bluray_compat=0 / constrained_intra=0 / bframes=4 / b_pyramid=2 / b_adapt=2 / b_bias=0 / direct=3 / weightb=1 / open_gop=0 / weightp=1 / keyint=240 / keyint_min=24 / scenecut=40 / intra_refresh=0 / rc_lookahead=10 / rc=2pass / mbtree=1 / bitrate=5449 / ratetol=1.0 / qcomp=0.60 / qpmin=0 / qpmax=69 / qpstep=4 / cplxblur=20.0 / qblur=0.5 / vbv_maxrate=62500 / vbv_bufsize=78125 / nal_hrd=none / ip_ratio=1.40 / aq=1:1.00
Язык                                     : English
Default                                  : Да
Forced                                   : Нет
Основные цвета                           : BT.709
Характеристики трансфера                 : BT.709
Коэффициенты матрицы                     : BT.709
colour_range                             : Limited

Аудио
Идентификатор                            : 2
Формат                                   : AC-3
Формат/Информация                        : Audio Coding 3
Расширение режима                        : CM (complete main)
Параметр Endianness формата              : Big
Идентификатор кодека                     : A_AC3
Продолжительность                        : 1 ч. 45 м.
Вид битрейта                             : Постоянный
Битрейт                                  : 448 Кбит/сек
Каналы                                   : 6 каналов
Расположение каналов                     : Front: L C R, Side: L R, LFE
Частота                                  : 48,0 КГц
Битовая глубина                          : 16 бит
Метод сжатия                             : С потерями
Размер потока                            : 339 Мбайт (8%)
Заголовок                                : DUB
Язык                                     : Russian
Default                                  : Да
Forced                                   : Нет

Текст #1
Идентификатор                            : 3
Формат                                   : UTF-8
Идентификатор кодека                     : S_TEXT/UTF8
Идентификатор кодека/Информация          : UTF-8 Plain Text
Заголовок                                : Full
Язык                                     : Russian
Default                                  : Да
Forced                                   : Нет

Текст #2
Идентификатор                            : 4
Формат                                   : UTF-8
Идентификатор кодека                     : S_TEXT/UTF8
Идентификатор кодека/Информация          : UTF-8 Plain Text
Заголовок                                : Full
Язык                                     : English
Default                                  : Нет
Forced                                   : Нет

Меню
00:00:00.000                             : :Chapter 01
00:07:15.601                             : :Chapter 02
00:16:04.755                             : :Chapter 03
00:25:08.006                             : :Chapter 04
00:39:00.796                             : :Chapter 05
00:44:16.653                             : :Chapter 06
00:52:52.419                             : :Chapter 07
01:04:01.420                             : :Chapter 08
01:12:50.574                             : :Chapter 09
01:19:37.272                             : :Chapter 10
01:29:00.335                             : :Chapter 11
01:42:05.119                             : :Chapter 12
01:45:46.214                             : :Chapter 13
picpicpicpicpicpic
Для увеличения картинки щелкните мышкой по превью

Автор рипа: Shrapnel

Этот торрент недоступен для скачивания без регистрации, однако доступен по публичной magnet-ссылке (источники с публичных трекеров). Перед использованием ссылки прочтите, пожалуйста Пользовательское соглашение, а также как можно дольше оставайтесь на раздаче! Для того, чтобы скачать сам торрент-файл (который видит больше источников), а также для того, чтобы поблагодарить релизера, вам необходимо зарегистрироваться. Если регистрироваться лень - вы можете также попробовать скачать релиз по нашим партнерским ссылкам ниже.

[underverse.su].t46501.torrent
Трекер: Зарегистрирован   [ 22.11.2014 20:44 ]  

Статус: проверено (by 90ytr90 at 24.11.2014 05:23)
Поблагодарили: 1 человек
Тип торрента: публичный - доступные источники с открытых трекеров: 
Размер: 4,36 GB (занимает 0,99 DVDR, для записи нужно 1 болванка DVDR/RW)
 
 


Последний раз редактировалось: andryan (23.11.2014 20:41), всего редактировалось 2 раз(а)

90ytr90 

22-Ноя-2014 14:43

Недокроп <> - сомнительно это ...

andryan Пол:Муж

22-Ноя-2014 15:22

Цитата:

Недокроп <> - сомнительно это ...
да вижу, если смотреть и делать скриншоты KMPlayer`ом, то действительно можно его обнаружить...

а если VLC media player`ом, то недокропа нет... но там скриншоты опять не соответствуют кадру (получаются 1280х722)
pic
что-то я не понимаю

90ytr90 

22-Ноя-2014 16:52

Цитата:

Конкретный пример:
в релизе согласно Media Info
разрешение файла Toy.Story.3.2010.DVDRip.{AVC-A-AAC}{Fr-Eng-Com}{Sub.Fr-Eng-Com}.mkv
Цитата:
Aspect : 720 x 400 (1.800) at 25.000 fps
Вообще-то там
Цитата:
Width : 720 pixels
Height : 400 pixels
Display aspect ratio : 16:9
Original display aspect ratio : 16:9
Это называется анаморф (720/400 = 1,8, что не равно 16/9). При растяжении картинки (720x400) до указанного соотношения сторон (16:9) получается 720x405 (720/16*9 = 405). Это правильно для воспроизведения, но неправильно для снятия скриншотов.
Здесь, видимо, аналогичная история (сам, если заморачиваюсь этим, - VirtualDub)
P.S.
И скрины > 3 Мб - скачиваю и пережимаю им же :twisted:

andryan Пол:Муж

22-Ноя-2014 17:52

Цитата:

Здесь, видимо, аналогичная история
в моем случае согласно Media Info:

Цитата:

Ширина : 1280 пикселей
Высота : 720 пикселей
Соотношение сторон : 16:9
с математикой тут все впорядке:
1280 : 720 = 16 : 9 = 1,777777777777778

VirtualDub посмотрю...

garry Пол:Муж

22-Ноя-2014 18:25

Цитата:

/Trapped.BDRip.720
Trapped.mkv 4.35 GB
мне просто интересно..зачем 1 фильм в папке?

andryan Пол:Муж

22-Ноя-2014 21:11

Цитата:

мне просто интересно..зачем 1 фильм в папке?
убрал

andryan Пол:Муж

23-Ноя-2014 15:06

90ytr90
VirtualDub не понимает .mkv

90ytr90 

23-Ноя-2014 15:46

andryan писал(а):

90ytr90
VirtualDub не понимает .mkv




pic

andryan Пол:Муж

23-Ноя-2014 20:53

Цитата:

Понимает :wink:
а... ну если только так...
pic
в VirtualDubMod недокропа нет ни на видео, ни на скриншотах... значит ли это, что рип нормальный?

90ytr90 

24-Ноя-2014 05:22

andryan писал(а):

в VirtualDubMod недокропа нет ни на видео, ни на скриншотах... значит ли это, что рип нормальный?
Ежели никаких фильтров не подключалось ...

Лады - проверено.

Яндекс.Метрика powered by Sphinx


В Н И М А Н И Е
Сайт не распространяет и не хранит электронные версии произведений, а лишь бесплатно и без коммерческой выгоды (не требуя взамен платы,
SMS и т.д.) предоставляет доступ к создаваемому пользователями каталогу ссылок на торрент-файлы, которые содержат только списки хеш-сумм.
Убедительная просьба с жалобами обращаться напрямую к пользователю, разместившему торрент файл.

Вверх