Loading...
Error

Профессионал (1-16 серии из 16) (Алан Дзоциев) [2014 г., боевик, SatRip]

Статистика раздачи
Размер:  7,89 GB   |    Зарегистрирован:  2 года   |    Скачан:  31 раз
Сидов:  1  |  326 KB/s  ]   Личеров:  0  |  0 KB/s  ]

* - сиды/пиры с внешних источников

   
 
Автор Сообщение

nemos Пол:Муж

21-Ноя-2014 18:39

Профессионал


Год выпуска: премьера (мир) 13 ноября 2014

Жанр: Боевик
Страна: Россия
Режиссер: Алан Дзоциев
В ролях: Алексей Лобанов (II), Константин Стрельников, Игорь Лагутин, Евгения Игумнова, Сергей Юшкевич, Андрей Горбачёв, Юрий Батурин, Анатолий Лобоцкий, Мария Решавская, Владимир Артёмов, Валерий Баринов, Сергей Жигунов, Юрий Ицков, Михаил Черняк, Александр Марушев, Сергей Амосов, Руслан Барабанов, Анатолий Ильченко, Алексей Федотов, Руслан Кацагаджиев, Стэнли Красовицки, Владимир Бирюков, Александр Иванов (XVII), Роман Жилкин, Борис Хасанов, Александр Голубков (II)
Сюжет фильма:
Сбежав из тюрьмы в Джакарте, где он провёл в заключении долгих четырнадцать лет, разведчик Андрей Зубов возвращается на родину, чтобы найти причины провала своей опергруппы и наказать виновников гибели жены. Преодолев тысячи километров, Зубов вынужден столкнуться с новым предательством, он становится объектом преследования своих бывших коллег, среди которых многие заинтересованы в том, чтобы он замолчал и исчез навсегда. Но, благодаря помощи новых и старых друзей, ему всё-таки удаётся невозможное - настоящий профессионал в своём деле, Зубов вступает в борьбу с преступной системой и побеждает её. Но многие вопросы, мучающие Андрея, так и остаются без ответа...


Качество видео: SatRip

Продолжительность: 00:42:10 серия
Формат: AVI
Видео: XviD, 720x400, 1 400 kbps
Аудио: русский, MP3 2.0, 192 kbps

Код:

E:\Фильмы Раздача-1\Профессионал (2014)\Профессионал.(01.seriya).2014.XviD.SATRip.by.simka.avi
   General
      Complete name : E:\Фильмы Раздача-1\Профессионал (2014)\Профессионал.(01.seriya).2014.XviD.SATRip.by.simka.avi
      Format : AVI
      Format/Info : Audio Video Interleave
      File size : 483 MiB
      Duration : 42mn 10s
      Overall bit rate : 1 602 Kbps
      Writing application : VirtualDubModRus 1.5.10.2 (build 2542/release)
      Writing library : VirtualDubMod build 2542/release
   Video #0
      ID : 0
      Format : MPEG-4 Visual
      Format profile : Advanced Simple@L5
      Format settings, BVOP : 1
      Format settings, QPel : No
      Format settings, GMC : No warppoints
      Format settings, Matrix : Default (MPEG)
      Codec ID : XVID
      Codec ID/Hint : XviD
      Duration : 42mn 10s
      Bit rate : 1 400 Kbps
      Width : 720 pixels
      Height : 400 pixels
      Display aspect ratio : 16:9
      Frame rate : 25.000 fps
      Color space : YUV
      Chroma subsampling : 4:2:0
      Bit depth : 8 bits
      Scan type : Progressive
      Compression mode : Lossy
      Bits/(Pixel*Frame) : 0.194
      Stream size : 422 MiB (87%)
      Writing library : XviD 1.2.1 (UTC 2008-12-04)
   Audio #1
      ID : 1
      Format : MPEG Audio
      Format version : Version 1
      Format profile : Layer 3
      Mode : Joint stereo
      Mode extension : MS Stereo
      Codec ID : 55
      Codec ID/Hint : MP3
      Duration : 42mn 10s
      Bit rate mode : Constant
      Bit rate : 192 Kbps
      Channel(s) : 2 channels
      Sampling rate : 48.0 KHz
      Compression mode : Lossy
      Stream size : 57.9 MiB (12%)
      Alignment : Aligned on interleaves
      Interleave, duration : 40 ms (1.00 video frame)
      Interleave, preload duration : 504 ms
      Writing library : LAME3.99r
      Encoding settings : -m j -V 4 -q 2 -lowpass 18.6 -b 192
picpicpicpicpicpicpicpicpic
Для увеличения картинки щелкните мышкой по превью

Этот торрент недоступен для скачивания без регистрации, однако доступен по публичной magnet-ссылке (источники с публичных трекеров). Перед использованием ссылки прочтите, пожалуйста Пользовательское соглашение, а также как можно дольше оставайтесь на раздаче! Для того, чтобы скачать сам торрент-файл (который видит больше источников), а также для того, чтобы поблагодарить релизера, вам необходимо зарегистрироваться. Если регистрироваться лень - вы можете также попробовать скачать релиз по нашим партнерским ссылкам ниже.

[underverse.su].t46728.torrent
Трекер: Зарегистрирован   [ 27.11.2014 16:32 ]  

Статус: проверено (by nemos at 27.11.2014 16:32)
Поблагодарили: 3 человека
Тип торрента: публичный - доступные источники с открытых трекеров: 
Размер: 7,89 GB (занимает 1,8 DVDR, для записи нужно 2 болванки DVDR/RW)
 
 
Похожие темы
Форум Тема Автор Торрент Отв. Посл. сооб.
Зарубежное кино [DVDRip, Low-Res HDRip, и т.д.] Профессионал / Killer Elite (Гэри МакКендри) [2011 г., боевик, триллер, криминал, HDRip] WeaSel
0 | 0

2 | 804

25

09.11.2011 19:58

Зарубежное кино [DVDRip, Low-Res HDRip, и т.д.] Профессионал / Killer Elite (Гэри МакКендри) [2011 г., боевик, триллер, криминал, DVDRip] *лиц. дуб.* RG NewCinema
0 | 0

1 | 1049

35

16.01.2012 14:49

Зарубежное кино [DVDRip, Low-Res HDRip, и т.д.] Профессионал / Killer Elite (Гэри МакКендри) [2011 г., боевик, триллер, криминал, BDRip] Dub + Original eng 90ytr90
0 | 0

0 | 1087

36

27.10.2012 16:44

Зарубежное кино [DVDRip, Low-Res HDRip, и т.д.] Профессионал / Le professionnel (Жорж Лотнер / Georges Lautner) [1981 г., боевик, триллер, драма, криминал, BDRip] 3xMVO + Dub + Original 90ytr90
7 | 0

0 | 1951

13

21.11.2013 13:47

Зарубежное кино [DVDRip, Low-Res HDRip, и т.д.] Профессионал / Le professionnel (Жорж Лотнер / Georges Lautner) [1981 г., боевик, триллер, драма, криминал, BDRip] 2xMVO + Dub 90ytr90
18 | 2

0 | 685

13

01.02.2014 17:03

Зарубежное кино [HDDVDRip / BDRip / WEB-DL / HDTV 1080/720р] Профессионал / Killer Elite (Гэри МакКендри / Gary McKendry) [2011 г., боевик, триллер, криминал, BDRip 720p] Dub + AVO + MVO + Original garry
4 | 0

0 | 986

22

03.02.2014 18:18

Системы для бизнеса Профессиональное программирование в 1С: Предприятии 8.х [2010] DVDRip | Е.Гилев, Ф.Насипов -- русский drdroid
1 | 0

12 | 12303

804

07.03.2013 09:06

Другое Профессиональное создание Интернет-магазина под ключ. Joomla 1.5 и Virtuemart 1.1 Русский Bratok
1 | 0

9 | 5837

214

11.04.2012 03:36

Профессиональное фото Профессиональная фотография - Фотограф Сергей Маршенников [1200х623-1200х1807, JPG] 39 шт. vvmalysh
2 | 0

0 | 359

6

01.12.2016 02:50

Профессиональное фото Профессиональная фотография - Фотограф Gene Oryx [667х1000-1500х1001, JPG] 165 шт. vvmalysh
0 | 0

0 | 404

8

26.11.2016 02:59



Последний раз редактировалось: nemos (27.11.2014 16:32), всего редактировалось 2 раз(а)

nemos Пол:Муж

25-Ноя-2014 15:08

Раздача обновлена! 16 серий.

Яндекс.Метрика powered by Sphinx


В Н И М А Н И Е
Сайт не распространяет и не хранит электронные версии произведений, а лишь бесплатно и без коммерческой выгоды (не требуя взамен платы,
SMS и т.д.) предоставляет доступ к создаваемому пользователями каталогу ссылок на торрент-файлы, которые содержат только списки хеш-сумм.
Убедительная просьба с жалобами обращаться напрямую к пользователю, разместившему торрент файл.

Вверх