Loading...
Error

Терминатор / The Terminator [Remastered] (Джеймс Кэмерон / James Cameron) [1984 г., фантастика, боевик, BDRip] Rus (Dub) + Original HQ Underverse

Статистика раздачи
Размер:  2,18 GB   |    Зарегистрирован:  2 года   |    Скачан:  11 раз
Сидов:  2  |  0 KB/s  ]   Личеров:  0  |  0 KB/s  ]

* - сиды/пиры с внешних источников

   
 
Автор Сообщение

HQ Underverse 

19-Ноя-2014 09:29

Терминатор / The Terminator [Remastered]


Год выпуска: 1984
Жанр: фантастика, боевик
Страна: США , Великобритания
Режиссер: Джеймс Кэмерон / James Cameron
В ролях: Арнольд Шварценеггер, Майкл Бин, Линда Хэмилтон, Пол Уинфилд, Лэнс Хенриксен, Рик Россович, Бесс Мотта, Эрл Боэн, Дик Миллер, Шон Шеппс
Сюжет фильма:
История противостояния солдата Кайла Риза и киборга-терминатора, прибывших в 1984-й год из пост-апокалиптического будущего, где миром правят машины-убийцы, а человечество находится на грани вымирания. Цель киборга: убить девушку по имени Сара Коннор, чей ещё нерождённый сын к 2029 году выиграет войну человечества с машинами. Цель Риза: спасти Сару и остановить Терминатора любой ценой

  • Мировая премьера: 26 октября 1984

/
Качество видео: BDRip

Продолжительность: 01:47:24
Формат: avi
Видео: XviD, 704x384, 1985 kbps
Аудио #1: русский, дублированный [лицензия, BD CEE], AC3 5.1, 448 kbps
Аудио #2: английский, оригинал, AC3 5.1, 448 kbps
Аудио #3: украинский, многоголосый закадровый [профессиональный, Інтер (спасибо Hurtom.com)], AC3 5.1, 448 kbps (отдельным файлом)
Субтитры #1: внешние, SRT, английский
Субтитры #2: внешние, SRT, русский

Семпл: http://multi-up.com/1014203

Релиз группы:

Код:

General
Complete name                    : D:\Video\Movies\Releases\Terminator.1984.BDRip.XviD.AC3.Rus.D.Eng.O.HQ.Underverse.avi
Format                           : AVI
Format/Info                      : Audio Video Interleave
Format profile                   : OpenDML
File size                        : 2.18 GiB
Duration                         : 1h 47mn
Overall bit rate                 : 2 900 Kbps
Writing application              : VirtualDubMod 1.5.10.3 | www.virtualdub-fr.org || (build 2550/release)
Writing library                  : VirtualDubMod build 2550/release

Video
ID                               : 0
Format                           : MPEG-4 Visual
Format profile                   : Streaming Video@L1
Format settings, BVOP            : Yes
Format settings, QPel            : No
Format settings, GMC             : No warppoints
Format settings, Matrix          : Custom
Codec ID                         : XVID
Codec ID/Hint                    : XviD
Duration                         : 1h 47mn
Bit rate                         : 1 986 Kbps
Width                            : 704 pixels
Height                           : 384 pixels
Display aspect ratio             : 16/9
Frame rate                       : 23.976 fps
Resolution                       : 24 bits
Colorimetry                      : 4:2:0
Scan type                        : Progressive
Bits/(Pixel*Frame)               : 0.306
Stream size                      : 1.49 GiB (68%)
Writing library                  : XviD 64

Audio #1
ID                               : 1
Format                           : AC-3
Format/Info                      : Audio Coding 3
Codec ID                         : 2000
Duration                         : 1h 47mn
Bit rate mode                    : Constant
Bit rate                         : 448 Kbps
Channel(s)                       : 6 channels
Channel positions                : Front: L C R, Surround: L R, LFE
Sampling rate                    : 48.0 KHz
Stream size                      : 344 MiB (15%)
Alignment                        : Split accross interleaves
Interleave, duration             : 42 ms (1.00 video frame)
Interleave, preload duration     : 500 ms
Title                            : Russian Dub

Audio #2
ID                               : 2
Format                           : AC-3
Format/Info                      : Audio Coding 3
Codec ID                         : 2000
Duration                         : 1h 47mn
Bit rate mode                    : Constant
Bit rate                         : 448 Kbps
Channel(s)                       : 6 channels
Channel positions                : Front: L C R, Surround: L R, LFE
Sampling rate                    : 48.0 KHz
Stream size                      : 344 MiB (15%)
Alignment                        : Split accross interleaves
Interleave, duration             : 42 ms (1.00 video frame)
Interleave, preload duration     : 500 ms
Title                            : English

General
Complete name                    : D:\Video\Movies\Releases\Terminator.1984.BDRip.XviD.AC3.Rus.D.Eng.O.HQ.Underverse.Ukr.MVO.Inter.ac3
Format                           : AC-3
Format/Info                      : Audio Coding 3
File size                        : 344 MiB
Duration                         : 1h 47mn
Overall bit rate                 : 448 Kbps

Audio
Format                           : AC-3
Format/Info                      : Audio Coding 3
Duration                         : 1h 47mn
Bit rate mode                    : Constant
Bit rate                         : 448 Kbps
Channel(s)                       : 6 channels
Channel positions                : Front: L C R, Surround: L R, LFE
Sampling rate                    : 48.0 KHz
Stream size                      : 344 MiB (100%)

picpicpic
Для увеличения картинки щелкните мышкой по превью

Этот торрент недоступен для скачивания без регистрации, однако доступен по публичной magnet-ссылке (источники с публичных трекеров). Перед использованием ссылки прочтите, пожалуйста Пользовательское соглашение, а также как можно дольше оставайтесь на раздаче! Для того, чтобы скачать сам торрент-файл (который видит больше источников), а также для того, чтобы поблагодарить релизера, вам необходимо зарегистрироваться. Если регистрироваться лень - вы можете также попробовать скачать релиз по нашим партнерским ссылкам ниже.

[underverse.su].t46368.torrent
Трекер: Зарегистрирован   [ 19.11.2014 09:29 ]  

Статус: проверено (by Паукан at 01.12.2014 16:20)
Поблагодарили: пока никто не поблагодарил...
Тип торрента: публичный - доступные источники с открытых трекеров: 
Размер: 2,18 GB (занимает 1/2 DVDR, для записи нужно 1 болванка DVDR/RW)
 
 
Похожие темы
Форум Тема Автор Торрент Отв. Посл. сооб.
Зарубежное кино [DVDRip, Low-Res HDRip, и т.д.] Терминатор: Да придёт спаситель / Terminator Salvation (МакДжи) [2009 г., фантастика, боевик, триллер, приключения, DVDRip] venom57rus
0 | 0

10 | 2769

102

07.09.2011 10:18

Зарубежное кино [DVDRip, Low-Res HDRip, и т.д.] Терминатор 2: Судный день / Terminator 2: Judgment Day (Джеймс Кэмерон) [1991 г., фантастика, триллер, боевик, BDRip] Saggitarius
4 | 0

6 | 1896

32

09.01.2011 19:12

Зарубежное кино [DVDRip, Low-Res HDRip, и т.д.] Терминатор: Генезис / Terminator: Genisys (Алан Тейлор) [2015 г., фантастика, боевик, триллер, приключения, BDRip] Dub makkol
16 | 0

1 | 682

50

22.11.2015 15:28

Зарубежное кино [DVDRip, Low-Res HDRip, и т.д.] Терминатор: Генезис / Terminator: Genisys (Алан Тейлор / Alan Taylor) [2015 г., фантастика, боевик, триллер, HDRip] MVO (Омикрон) + 2xAVO (Володарский, Гаврилов) 90ytr90
55 | 0

0 | 536

12

16.01.2016 11:11

Зарубежное кино [DVDRip, Low-Res HDRip, и т.д.] Терминатор: Генезис / Terminator: Genisys (Алан Тейлор / Alan Taylor) [2015 г., фантастика, боевик, триллер, BDRip] 2xDub (Rus, Ukr) + Original (Eng) + Sub (Rus, Eng) 90ytr90
0 | 0

0 | 582

6

16.01.2016 11:17

Зарубежные сериалы Терминатор: Хроники Сары Коннор (Девид Неттер ) [ г., фантастика, боевик, HDTVRip] (1 и 2 сезон, 31 серия из 31) три колоска
0 | 0

2 | 1669

10

14.08.2011 16:30

Мультсериалы Терминатор - Да придёт Спаситель / Terminator - Salvation The Machinima Series / серии 1-6 (Тор Хельмштайн, Йен Кирби)[ 2009,фантастика, мультфильм, DVDRip] МУХА~
0 | 0

0 | 1430

12

06.09.2010 17:07

Зарубежное кино [DVD / HDDVD / BD / Remux] Терминатор / The Terminator (Джеймс Кэмерон / James Cameron) [1984, Великобритания, США, фантастика, боевик, Blu-ray Disc 1080p BD-50] DUB + Original Eng + Subs uzi2009
8 | 0

1 | 1199

6

29.01.2014 14:46

Зарубежное кино [HDDVDRip / BDRip / WEB-DL / HDTV 1080/720р] Терминатор. Генезис 3D / Terminator Genisys 3D (Алан Тейлор) [2015 г., фантастика, боевик, триллер, приключения, BDRip 1080p] Dub + Original makkol
1 | 0

0 | 1006

40

16.10.2015 14:18

Зарубежное кино [HDDVDRip / BDRip / WEB-DL / HDTV 1080/720р] Терминатор: Генезис / Terminator: Genisys (Алан Тейлор) [2015 г., фантастика, боевик, триллер, приключения, BDRip 720p] Dub (Rus) + Dub (Ukr) + Original + Subs makkol
15 | 0

0 | 511

31

22.11.2015 12:52


Яндекс.Метрика powered by Sphinx


В Н И М А Н И Е
Сайт не распространяет и не хранит электронные версии произведений, а лишь бесплатно и без коммерческой выгоды (не требуя взамен платы,
SMS и т.д.) предоставляет доступ к создаваемому пользователями каталогу ссылок на торрент-файлы, которые содержат только списки хеш-сумм.
Убедительная просьба с жалобами обращаться напрямую к пользователю, разместившему торрент файл.

Вверх