Loading...
Error

На последнем берегу / On the Beach / Серии: 1-2 из 2 (Рассел Малкэй) [2000 г., Фантастика, Драма, DVDRip-AVC] MVO (RUS) + Subs (RUS)

Страницы:  1, 2  След.   

Статистика раздачи
Размер:  4,36 GB   |    Зарегистрирован:  2 года   |    Скачан:  4 раза

Полного источника не было: 12 дней

Сидов:  0  |  0 KB/s  ]   Личеров:  0  |  0 KB/s  ]

* - сиды/пиры с внешних источников

   
 
Автор Сообщение

andryan Пол:Муж

19-Ноя-2014 07:44

На последнем берегу / On the Beach


Год выпуска: 2000
Жанр: Фантастика, Драма
Страна: Австралия , США
Режиссер: Рассел Малкэй
В ролях: Арманд Ассанте, Рэйчел Уорд, Брайан Браун, Жаклин МакКензи, Грант Боулер, Эллисон Веббер, Тигхэн Веббер, Стив Бастони, Дэвид Росс Патерсон, Кевин Коуплэнд
Сюжет фильма:
В 2006 году обмен ракетными ударами между Китаем и США и последовавшая за этим мировая ядерная война сметают человечество с лица Земли. Радиоактивные осадки угрожают уничтожить последний очаг цивилизации — Австралию.
Подводная лодка «Чарлстон» под командованием капитана Дуайта Тауэрса, единственный уцелевший в войне корабль американского военно-морского флота, прибывает в Мельбурн. Взяв на борт ученого Джулиана Осборна, «Чарлстон» отправляется в «экспедицию последней надежды» к берегам Аляски, откуда поступают таинственные, еле слышные радиосигналы…

  • Мировая премьера: 28 мая 2000


Качество видео: DVDRip-AVC

Продолжительность: 01:34:24 + 01:44:37
Формат: MKV
Видео: MPEG-4 AVC, 704х544, 2800 kbps
Аудио: русский, многоголосый закадровый [профессиональный], AC3 5.1, 384 kbps, 6 ch., 48.0 KHz
Субтитры: тип: вшитые отключаемые, русский, формат: IDX

Код:

Общее
UniqueID/String                  : 174129963391121753416376407754943085841 (0x83003608BFC8604A857CFA3FE435BD11)
CompleteName                     : F:\underverse\На последнем берегу_On the Beach (2 серии)\On.the.Beach.1.2000.DVDRip-AVC.H.264.2.10GB.mkv
Format                           : Matroska
Format_Version                   : Version 4 / Version 2
FileSize/String                  : 2,10 Гбайт
Duration/String                  : 1 ч. 34 м.
OverallBitRate/String            : 3191 Кбит/сек
Encoded_Date                     : UTC 2014-02-15 11:56:19
Encoded_Application              : mkvmerge v6.3.0 ('You can't stop me!') built on Jun 28 2013 20:09:41
Encoded_Library/String           : libebml v1.3.0 + libmatroska v1.4.0

Видео
ID/String                        : 1
Format                           : AVC
Format/Info                      : Advanced Video Codec
Format_Profile                   : High@L4.1
Format_Settings_CABAC/String     : Да
Format_Settings_RefFrames/String : 4 кадра
CodecID                          : V_MPEG4/ISO/AVC
Duration/String                  : 1 ч. 34 м.
BitRate/String                   : 2800 Кбит/сек
Width/String                     : 704 пикселя
Height/String                    : 544 пикселя
DisplayAspectRatio/String        : 4:3
FrameRate_Mode/String            : Постоянный
FrameRate/String                 : 25,000 кадров/сек
ColorSpace                       : YUV
ChromaSubsampling                : 4:2:0
BitDepth/String                  : 8 бит
ScanType/String                  : Прогрессивная
Bits-(Pixel*Frame)               : 0.292
StreamSize/String                : 1,81 Гбайт (86%)
Title                            : On_the_Beach
Encoded_Library/String           : x264 core 138 r2345
Encoded_Library_Settings         : cabac=1 / ref=4 / deblock=1:0:0 / analyse=0x3:0x133 / me=umh / subme=9 / psy=1 / psy_rd=1.00:0.00 / mixed_ref=0 / me_range=16 / chroma_me=1 / trellis=1 / 8x8dct=1 / cqm=0 / deadzone=21,11 / fast_pskip=1 / chroma_qp_offset=-2 / threads=6 / lookahead_threads=1 / sliced_threads=0 / nr=0 / decimate=1 / interlaced=0 / bluray_compat=0 / constrained_intra=0 / bframes=4 / b_pyramid=0 / b_adapt=2 / b_bias=0 / direct=3 / weightb=1 / open_gop=0 / weightp=2 / keyint=250 / keyint_min=25 / scenecut=40 / intra_refresh=0 / rc_lookahead=40 / rc=2pass / mbtree=1 / bitrate=2800 / ratetol=1.0 / qcomp=0.60 / qpmin=10 / qpmax=69 / qpstep=4 / cplxblur=20.0 / qblur=0.5 / vbv_maxrate=24000 / vbv_bufsize=24000 / nal_hrd=none / ip_ratio=1.40 / aq=1:1.00
Language/String                  : English
Default/String                   : Да
Forced/String                    : Нет

Аудио
ID/String                        : 2
Format                           : AC-3
Format/Info                      : Audio Coding 3
Format_Settings_ModeExtension    : CM (complete main)
Format_Settings_Endianness       : Big
CodecID                          : A_AC3
Duration/String                  : 1 ч. 34 м.
BitRate_Mode/String              : Постоянный
BitRate/String                   : 384 Кбит/сек
Channel(s)/String                : 6 каналов
ChannelPositions                 : Front: L C R, Side: L R, LFE
SamplingRate/String              : 48,0 КГц
BitDepth/String                  : 16 бит
Compression_Mode/String          : С потерями
StreamSize/String                : 259 Мбайт (12%)
Title                            : MVO
Language/String                  : Russian
Default/String                   : Да
Forced/String                    : Нет

Текст
ID/String                        : 3
Format                           : VobSub
CodecID                          : S_VOBSUB
CodecID/Info                     : The same subtitle format used on DVDs
Title                            : Full
Language/String                  : Russian
Default/String                   : Да
Forced/String                    : Нет

Меню
00:00:00.000                     : en:Глава 01
00:07:59.080                     : en:Глава 02
00:16:23.160                     : en:Глава 03
00:24:54.880                     : en:Глава 04
00:34:39.960                     : en:Глава 05
00:42:40.960                     : en:Глава 06
00:50:41.520                     : en:Глава 07
01:01:36.600                     : en:Глава 08
01:10:41.520                     : en:Глава 09
01:17:49.080                     : en:Глава 10
01:24:33.600                     : en:Глава 11
01:28:37.680                     : en:Глава 12

Код:

Общее
Уникальный идентификатор                 : 218245158668867269762301905164370140416 (0xA4307D16D78E58A08507134C0EEB5D00)
Полное имя                               : F:\underverse\На последнем берегу_On the Beach (2 серии)\On_The_Beach.DVDRip\On.the.Beach.2.2000.DVDRip-AVC.H.264.2.25GB.mkv
Формат                                   : Matroska
Версия формата                           : Version 4 / Version 2
Размер файла                             : 2,26 Гбайт
Продолжительность                        : 1 ч. 44 м.
Общий поток                              : 3089 Кбит/сек
Дата кодирования                         : UTC 2014-02-15 11:58:52
Программа кодирования                    : mkvmerge v6.3.0 ('You can't stop me!') built on Jun 28 2013 20:09:41
Библиотека кодирования                   : libebml v1.3.0 + libmatroska v1.4.0

Видео
Идентификатор                            : 1
Формат                                   : AVC
Формат/Информация                        : Advanced Video Codec
Профиль формата                          : High@L4.1
Параметр CABAC формата                   : Да
Параметр ReFrames формата                : 4 кадра
Идентификатор кодека                     : V_MPEG4/ISO/AVC
Продолжительность                        : 1 ч. 44 м.
Битрейт                                  : 2700 Кбит/сек
Ширина                                   : 704 пикселя
Высота                                   : 544 пикселя
Соотношение сторон                       : 4:3
Режим частоты кадров                     : Постоянный
Частота кадров                           : 25,000 кадров/сек
Цветовое пространство                    : YUV
Субдискретизация насыщенности            : 4:2:0
Битовая глубина                          : 8 бит
Тип развёртки                            : Прогрессивная
Бит/(Пиксели*Кадры)                      : 0.282
Размер потока                            : 1,93 Гбайт (86%)
Заголовок                                : On_the_Beach
Библиотека кодирования                   : x264 core 138 r2345
Настройки программы                      : cabac=1 / ref=4 / deblock=1:0:0 / analyse=0x3:0x133 / me=umh / subme=9 / psy=1 / psy_rd=1.00:0.00 / mixed_ref=0 / me_range=16 / chroma_me=1 / trellis=1 / 8x8dct=1 / cqm=0 / deadzone=21,11 / fast_pskip=1 / chroma_qp_offset=-2 / threads=6 / lookahead_threads=1 / sliced_threads=0 / nr=0 / decimate=1 / interlaced=0 / bluray_compat=0 / constrained_intra=0 / bframes=4 / b_pyramid=0 / b_adapt=2 / b_bias=0 / direct=3 / weightb=1 / open_gop=0 / weightp=2 / keyint=250 / keyint_min=25 / scenecut=40 / intra_refresh=0 / rc_lookahead=40 / rc=2pass / mbtree=1 / bitrate=2700 / ratetol=1.0 / qcomp=0.60 / qpmin=10 / qpmax=69 / qpstep=4 / cplxblur=20.0 / qblur=0.5 / vbv_maxrate=24000 / vbv_bufsize=24000 / nal_hrd=none / ip_ratio=1.40 / aq=1:1.00
Язык                                     : English
Default                                  : Да
Forced                                   : Нет

Аудио
Идентификатор                            : 2
Формат                                   : AC-3
Формат/Информация                        : Audio Coding 3
Расширение режима                        : CM (complete main)
Параметр Endianness формата              : Big
Идентификатор кодека                     : A_AC3
Продолжительность                        : 1 ч. 44 м.
Вид битрейта                             : Постоянный
Битрейт                                  : 384 Кбит/сек
Каналы                                   : 6 каналов
Расположение каналов                     : Front: L C R, Side: L R, LFE
Частота                                  : 48,0 КГц
Битовая глубина                          : 16 бит
Метод сжатия                             : С потерями
Размер потока                            : 287 Мбайт (12%)
Заголовок                                : MVO
Язык                                     : Russian
Default                                  : Да
Forced                                   : Нет

Текст
Идентификатор                            : 3
Формат                                   : VobSub
Идентификатор кодека                     : S_VOBSUB
Идентификатор кодека/Информация          : The same subtitle format used on DVDs
Заголовок                                : Full
Язык                                     : Russian
Default                                  : Да
Forced                                   : Нет

Меню
00:00:00.000                             : en:Глава 01
00:10:03.640                             : en:Глава 02
00:18:49.520                             : en:Глава 03
00:29:32.160                             : en:Глава 04
00:36:34.880                             : en:Глава 05
00:46:56.160                             : en:Глава 06
00:54:26.320                             : en:Глава 07
01:05:43.280                             : en:Глава 08
01:15:50.600                             : en:Глава 09
01:23:55.440                             : en:Глава 10
01:31:31.400                             : en:Глава 11
01:41:45.160                             : en:Глава 12
picpicpicpicpicpic
Для увеличения картинки щелкните мышкой по превью

Автор рипа: Shrapnel

Этот торрент недоступен для скачивания без регистрации, однако доступен по публичной magnet-ссылке (источники с публичных трекеров). Перед использованием ссылки прочтите, пожалуйста Пользовательское соглашение, а также как можно дольше оставайтесь на раздаче! Для того, чтобы скачать сам торрент-файл (который видит больше источников), а также для того, чтобы поблагодарить релизера, вам необходимо зарегистрироваться. Если регистрироваться лень - вы можете также попробовать скачать релиз по нашим партнерским ссылкам ниже.

[underverse.su].t46366.torrent
Трекер: Зарегистрирован   [ 19.11.2014 21:42 ]  

Статус: проверено (by garry at 20.11.2014 20:50)
Поблагодарили: 2 человека
Тип торрента: публичный - доступные источники с открытых трекеров: 
Размер: 4,36 GB (занимает 1 DVDR, для записи нужно 1 болванка DVDR/RW)
 
 


Последний раз редактировалось: andryan (20.11.2014 20:38), всего редактировалось 5 раз(а)

andryan Пол:Муж

19-Ноя-2014 15:45

изменил тип торрента на публичный...
личеров прошу скачать и запустить обновленный торрент-файл... если что, извиняюсь, спасибо

garry Пол:Муж

19-Ноя-2014 17:19

Добрый день.
скажите, пожалуйста, это Ваш рип?

Цитата:

Сериалы » Зарубежные сериалы
как по мне это фильм с 2-ух серий..

Цитата:

707х544
в медианфо другое...
скриншоты чем делали?

Цитата:

Аудио: русский, многоголосый закадровый [профессиональный], AC3 (mono), 384 kbps, 6 ch., 48.0 KHz
моно?

andryan Пол:Муж

19-Ноя-2014 18:08

здравствуйте...

Цитата:

скажите, пожалуйста, это Ваш рип?
нет

Цитата:

как по мне это фильм с 2-ух серий..
по мне тоже, но модератор перенес сюда...

Цитата:

в медианфо другое...
это опечатка, конечно же 704х544, постараюсь исправить когда соображу как (это моя первая раздача)

Цитата:

скриншоты чем делали?
VLC media player

Цитата:

моно?
судя по 6-ти каналам нет, как-то при создании раздачи не придал этому значения, видимо зря... постараюсь исправить

добавлено спустя 9 минут 31 секунда:

что мог исправил, спасибо...

19-Ноя-2014 19:49

Топик был перенесен из форума Зарубежные сериалы в форум Зарубежное кино [DVDRip, Low-Res HDRip, и т.д.]

Причина переноса: правильный раздел
garry
 

garry Пол:Муж

19-Ноя-2014 19:55

Цитата:

постараюсь исправить когда соображу как (это моя первая раздача)
для первого раза весьма неплохо. я видел в 100 раз хуже :)
вот олько скриншоты теперь не подходят под 704х544

Как сделать скриншот в VLC Media Player
При произведении видео нажимаете Shift+S (это cочетание по умолчанию, можно изменить) или идёте в меню Video-> Snapshot (Видео -> Снимок)
Всё, снимок лежит в папке, которую Вы указали. Или смотрите во время создания скрина куда именно он сохраняется у Вас.

andryan Пол:Муж

19-Ноя-2014 20:35

Цитата:

вот олько скриншоты теперь не подходят под 704х544

Как сделать скриншот в VLC Media Player
При произведении видео нажимаете Shift+S (это cочетание по умолчанию, можно изменить) или идёте в меню Video-> Snapshot (Видео -> Снимок)
Всё, снимок лежит в папке, которую Вы указали. Или смотрите во время создания скрина куда именно он сохраняется у Вас.
я так и делал, но VLC упорно сохраняет скриншоты 707х544 (проверил еще раз)... похоже на баг

garry Пол:Муж

19-Ноя-2014 20:45

интересно...

Ведьмочка Пол:Жен

20-Ноя-2014 19:27

Правда странно.
Делала KMPlayer'ом со второго фильма. Всё в соответствии с указанным разрешением.

picpicpic

90ytr90 

20-Ноя-2014 20:30

Ведьмочка писал(а):

Правда странно.
Делала KMPlayer'ом со второго фильма. Всё в соответствии с указанным разрешением.
Угу, еще бы посмотреть МИ другой серии, что там за кадр.

тот же
Общее
Уникальный идентификатор : 218245158668867269762301905164370140416 (0xA4307D16D78E58A08507134C0EEB5D00)
Полное имя : f:\Downloads\On.the.Beach.2000.DVDRip-AVC.H.264.4.35GB\On.the.Beach.2.2000.DVDRip-AVC.H.264.2.25GB.mkv
Формат : Matroska
Версия формата : Version 4 / Version 2
Размер файла : 2,26 Гбайт
Продолжительность : 1 ч. 44 м.
Общий поток : 3089 Кбит/сек
Дата кодирования : UTC 2014-02-15 11:58:52
Программа кодирования : mkvmerge v6.3.0 ('You can't stop me!') built on Jun 28 2013 20:09:41
Библиотека кодирования : libebml v1.3.0 + libmatroska v1.4.0

Видео
Идентификатор : 1
Формат : AVC
Формат/Информация : Advanced Video Codec
Профиль формата :
Параметр CABAC формата : Да
Параметр ReFrames формата : 4 кадра
Идентификатор кодека : V_MPEG4/ISO/AVC
Продолжительность : 1 ч. 44 м.
Битрейт : 2700 Кбит/сек
Ширина : 704 пикселя
Высота : 544 пикселя
Соотношение сторон : 4:3
Режим частоты кадров : Постоянный
Частота кадров : 25,000 кадров/сек
Цветовое пространство : YUV
Субдискретизация насыщенности : 4:2:0
Битовая глубина : 8 бит
Тип развёртки : Прогрессивная
Бит/(Пиксели*Кадры) : 0.282
Размер потока : 1,93 Гбайт (86%)
Заголовок : On_the_Beach
Библиотека кодирования : x264 core 138 r2345
Настройки программы : cabac=1 / ref=4 / deblock=1:0:0 / analyse=0x3:0x133 / me=umh / subme=9 / psy=1 / psy_rd=1.00:0.00 / mixed_ref=0 / me_range=16 / chroma_me=1 / trellis=1 / 8x8dct=1 / cqm=0 / deadzone=21,11 / fast_pskip=1 / chroma_qp_offset=-2 / threads=6 / lookahead_threads=1 / sliced_threads=0 / nr=0 / decimate=1 / interlaced=0 / bluray_compat=0 / constrained_intra=0 / bframes=4 / b_pyramid=0 / b_adapt=2 / b_bias=0 / direct=3 / weightb=1 / open_gop=0 / weightp=2 / keyint=250 / keyint_min=25 / scenecut=40 / intra_refresh=0 / rc_lookahead=40 / rc=2pass / mbtree=1 / bitrate=2700 / ratetol=1.0 / qcomp=0.60 / qpmin=10 / qpmax=69 / qpstep=4 / cplxblur=20.0 / qblur=0.5 / vbv_maxrate=24000 / vbv_bufsize=24000 / nal_hrd=none / ip_ratio=1.40 / aq=1:1.00
Язык : English
Default : Да
Forced : Нет

Аудио
Идентификатор : 2
Формат : AC-3
Формат/Информация : Audio Coding 3
Расширение режима : CM (complete main)
Параметр Endianness формата : Big
Идентификатор кодека : A_AC3
Продолжительность : 1 ч. 44 м.
Вид битрейта : Постоянный
Битрейт : 384 Кбит/сек
Каналы : 6 каналов
Расположение каналов : Front: L C R, Side: L R, LFE
Частота : 48,0 КГц
Битовая глубина : 16 бит
Метод сжатия : С потерями
Размер потока : 287 Мбайт (12%)
Заголовок : MVO
Язык : Russian
Default : Да
Forced : Нет

Текст
Идентификатор : 3
Формат : VobSub
Идентификатор кодека : S_VOBSUB
Идентификатор кодека/Информация : The same subtitle format used on DVDs
Заголовок : Full
Язык : Russian
Default : Да
Forced : Нет

Меню
00:00:00.000 : en:Глава 01
00:10:03.640 : en:Глава 02
00:18:49.520 : en:Глава 03
00:29:32.160 : en:Глава 04
00:36:34.880 : en:Глава 05
00:46:56.160 : en:Глава 06
00:54:26.320 : en:Глава 07
01:05:43.280 : en:Глава 08
01:15:50.600 : en:Глава 09
01:23:55.440 : en:Глава 10
01:31:31.400 : en:Глава 11
01:41:45.160 : en:Глава 12

andryan Пол:Муж

20-Ноя-2014 20:41

Цитата:

Делала KMPlayer'ом со второго фильма. Всё в соответствии с указанным разрешением.
установил KMPlayer, заменил скриншоты, теперь соответствуют...

Цитата:

Угу, еще бы посмотреть МИ другой серии, что там за кадр.
добавил...

garry Пол:Муж

20-Ноя-2014 20:49

Цитата:

установил KMPlayer, заменил скриншоты, теперь соответствуют...
хорошо. только лучше скриншоты сохранять в .png

andryan Пол:Муж

20-Ноя-2014 21:03

Цитата:

хорошо. только лучше скриншоты сохранять в .png
в .png размер файлов получается больше, точно это лучше?

garry Пол:Муж

20-Ноя-2014 21:23

andryan
да, потому что .jpg не отображает полноценное качество видеоряда...

andryan Пол:Муж

20-Ноя-2014 21:25

ок, учту...

Яндекс.Метрика powered by Sphinx


В Н И М А Н И Е
Сайт не распространяет и не хранит электронные версии произведений, а лишь бесплатно и без коммерческой выгоды (не требуя взамен платы,
SMS и т.д.) предоставляет доступ к создаваемому пользователями каталогу ссылок на торрент-файлы, которые содержат только списки хеш-сумм.
Убедительная просьба с жалобами обращаться напрямую к пользователю, разместившему торрент файл.

Вверх