Loading...
Error

Оставленные / Left Behind (Вик Армстронг) [2014 г., триллер, BDRip] Dub (RUS)

Статистика раздачи
Размер:  1,37 GB   |    Зарегистрирован:  2 года   |    Скачан:  18 раз

Полного источника не было: 1 год 9 месяцев

Сидов:  0  |  0 KB/s  ]   Личеров:  0  |  0 KB/s  ]

* - сиды/пиры с внешних источников

   
 
Автор Сообщение

Jeffer Пол:Муж

18-Ноя-2014 19:39

Оставленные / Left Behind
Год выпуска: 2014
Жанр: фантастика, триллер, драма
Продолжительность: 01:45:34
Страна: США
Режиссер: Вик Армстронг
В ролях: Николас Кейдж, Чад Майкл Мюррэй, Касси Томсон, Никки Уилан, Джордин Спаркс, Лиа Томпсон, Куинтон Аарон, Мартин Клебба, Лаура Кайот, Стефани Онор
Сюжет фильма:

История летчика Рэйфорда Стила, столкнувшегося во время рейса с исчезновением нескольких пассажиров прямо из салона самолета. Вскоре становится известно о случаях бесследного исчезновения и в других местах. Людей охватывает паника.

Озвучивание:
  • Дублированный, Русский

Качество видео: BDRip
Формат: MKV

Видео: XviD, 720x304 (2.35.1), 25.000 fps, 1405 kbps
Аудио: AC-3, 448 kbps, 6 ch., 48.0 KHz


Video
Видео: ID : 1
Format : AVC
Format/Info : Advanced Video Codec
Format profile : High@L4.1
Format settings, CABAC : Yes
Format settings, ReFrames : 12 frames
Codec ID : V_MPEG4/ISO/AVC
Duration : 1h 45mn
Bit rate : 1 405 Kbps
Width : 720 pixels
Height : 304 pixels
Display aspect ratio : 2.35:1
Frame rate mode : Constant
Frame rate : 25.000 fps
Color space : YUV
Chroma subsampling : 4:2:0
Bit depth : 8 bits
Scan type : Progressive
Bits/(Pixel*Frame) : 0.257
Stream size : 1.01 GiB (74%)
Writing library : x264 core 142 r2431 ac76440
Encoding settings : cabac=1 / ref=12 / deblock=1:-3:-3 / analyse=0x3:0x133 / me=umh / subme=7 / psy=1 / psy_rd=1.00:0.15 / mixed_ref=1 / me_range=32 / chroma_me=1 / trellis=1 / 8x8dct=1 / cqm=0 / deadzone=21,11 / fast_pskip=1 / chroma_qp_offset=-3 / threads=12 / lookahead_threads=2 / sliced_threads=0 / nr=0 / decimate=1 / interlaced=0 / bluray_compat=0 / constrained_intra=0 / bframes=7 / b_pyramid=2 / b_adapt=1 / b_bias=0 / direct=1 / weightb=1 / open_gop=0 / weightp=2 / keyint=250 / keyint_min=25 / scenecut=40 / intra_refresh=0 / rc_lookahead=40 / rc=2pass / mbtree=1 / bitrate=1405 / ratetol=1.0 / qcomp=0.60 / qpmin=0 / qpmax=69 / qpstep=4 / cplxblur=20.0 / qblur=0.5 / vbv_maxrate=62500 / vbv_bufsize=78125 / nal_hrd=none / filler=0 / ip_ratio=1.40 / aq=1:1.00
Language : Russian
Default : Yes
Forced : No

Audio
ID : 2
Format : AC-3
Format/Info : Audio Coding 3
Mode extension : CM (complete main)
Format settings, Endianness : Big
Codec ID : A_AC3
Duration : 1h 45mn
Bit rate mode : Constant
Bit rate : 448 Kbps
Channel(s) : 6 channels
Channel positions : Front: L C R, Side: L R, LFE
Sampling rate : 48.0 KHz
Bit depth : 16 bits
Compression mode : Lossy
Stream size : 338 MiB (24%)
Language : Russian
Default : Yes
Forced : No
Русский (Дубляж)

picpicpic
Для увеличения картинки щелкните мышкой по превью

Этот торрент недоступен для скачивания без регистрации, однако доступен по публичной magnet-ссылке (источники с публичных трекеров). Перед использованием ссылки прочтите, пожалуйста Пользовательское соглашение, а также как можно дольше оставайтесь на раздаче! Для того, чтобы скачать сам торрент-файл (который видит больше источников), а также для того, чтобы поблагодарить релизера, вам необходимо зарегистрироваться. Если регистрироваться лень - вы можете также попробовать скачать релиз по нашим партнерским ссылкам ниже.

[underverse.su].t46363.torrent
Трекер: Зарегистрирован   [ 18.11.2014 19:39 ]  

Статус: проверено (by Ведьмочка at 19.11.2014 07:10)
Поблагодарили: пока никто не поблагодарил...
Тип торрента: публичный - доступные источники с открытых трекеров: 
Размер: 1,37 GB (занимает 0,31 DVDR, для записи нужно 1 болванка DVDR/RW)
 
 
Похожие темы
Форум Тема Автор Торрент Отв. Посл. сооб.
Зарубежное кино [DVDRip, Low-Res HDRip, и т.д.] Оставленные / Left Behind (Вик Армстронг / Vic Armstrong) [2014 г., фантастика, триллер, драма, BDRip-AVC] Dub 90ytr90
1 | 0

0 | 549

18

21.11.2014 12:22

# Зарубежное кино [DVDRip, Low-Res HDRip, и т.д.] Оставленные / Left Behind (Вик Армстронг / Vic Armstrong) [2014 г., фантастика, триллер, драма, BDRip] Dub + Original (Eng) 90ytr90
0 | 0

0 | 539

15

21.11.2014 12:30

Зарубежное кино [HDDVDRip / BDRip / WEB-DL / HDTV 1080/720р] Оставленные / Left Behind (Вик Армстронг / Vic Armstrong) [2014 г., фантастика, триллер, драма, BDRip 720p] Dub 90ytr90
1 | 0

0 | 856

29

02.12.2014 15:42



Последний раз редактировалось: Jeffer (18.11.2014 20:24), всего редактировалось 8 раз(а)

Яндекс.Метрика powered by Sphinx


В Н И М А Н И Е
Сайт не распространяет и не хранит электронные версии произведений, а лишь бесплатно и без коммерческой выгоды (не требуя взамен платы,
SMS и т.д.) предоставляет доступ к создаваемому пользователями каталогу ссылок на торрент-файлы, которые содержат только списки хеш-сумм.
Убедительная просьба с жалобами обращаться напрямую к пользователю, разместившему торрент файл.

Вверх