Loading...
Error

Стражи Галактики / Guardians of the Galaxy (Джеймс Ганн) [2014 г., Фантастика, Боевик, Приключения, HDRip] Dub (RUS) Чистый звук

Статистика раздачи
Размер:  1,45 GB   |    Зарегистрирован:  2 года   |    Скачан:  34 раза

Полного источника не было: 1 месяц 27 дней

Сидов:  0  |  0 KB/s  ]   Личеров:  0  |  0 KB/s  ]

* - сиды/пиры с внешних источников

   
 
Автор Сообщение

Ведьмочка Пол:Жен

17-Ноя-2014 09:25

Стражи Галактики / Guardians of the Galaxy
«Мстители спасают лишь Землю бренную, а эти ребята спасают Вселенную»


Страна: США , Великобритания
Год выпуска: 2014
Жанр: Фантастика, Боевик, Приключения
Продолжительность: 02:00:51
Режиссёр: Джеймс Ганн
В ролях: Крис Прэтт, Зои Салдана, Дэйв Батиста, Вин Дизель, Брэдли Купер, Ли Пейс, Майкл Рукер, Карен Гиллан, Джимон Хонсу, Джон Си Райли
Сюжет фильма:
Отважному путешественнику Питеру Квиллу попадает в руки таинственный артефакт, принадлежащий могущественному и безжалостному злодею Ронану, строящему коварные планы по захвату Вселенной. Питер оказывается в центре межгалактической охоты, где жертва — он сам.

Единственный способ спасти свою жизнь — объединиться с четверкой нелюдимых изгоев: воинственным енотом по кличке Ракета, человекоподобным деревом Грутом, смертельно опасной Гаморой и одержимым жаждой мести Драксом, также известным как Разрушитель. Когда Квилл понимает, какой силой обладает украденный артефакт и какую опасность он представляет для вселенной, одиночка пойдет на все, чтобы сплотить случайных союзников для решающей битвы за судьбу галактики.


Озвучивание:
  • Дублированный, Русский [Чистый звук]

Качество видео: HDRip
Формат: AVI

Видео: XviD, 720x304 (2.35:1), 23.976 fps, ~1516 Kбит/сек
Аудио: AC-3, 192 Кбит/сек, 2 Каналa, 48.0 КГц

Rip by:



Общее
Полное имя : \Srtraji_galaktiki_2014_HDRip_[scarabey.org].avi
Формат : AVI
Формат/Информация : Audio Video Interleave
Размер файла : 1,45 Гбайт
Продолжительность : 2 ч. 0 м.
Общий поток : 1717 Кбит/сек
Программа кодирования : VirtualDubMod 1.5.10.3 | www.virtualdub-fr.org || (build 2550/release)
Библиотека кодирования : VirtualDub build 32842/release

Видео
Идентификатор : 0
Формат : MPEG-4 Visual
Профиль формата : Advanced Simple@L5
Параметр BVOP формата : 1
Параметр QPel формата : Нет
Параметр GMC формата : Без точки перехода
Параметр матрицы формата : Выборочная
Идентификатор кодека : XVID
Идентификатор кодека/Подсказка : XviD
Продолжительность : 2 ч. 0 м.
Битрейт : 1516 Кбит/сек
Ширина : 720 пикселей
Высота : 304 пикселя
Соотношение сторон : 2,35:1
Частота кадров : 23,976 кадра/сек
Цветовое пространство : YUV
Субдискретизация насыщенности : 4:2:0
Битовая глубина : 8 бит
Тип развёртки : Прогрессивная
Метод сжатия : С потерями
Бит/(Пиксели*Кадры) : 0.289
Размер потока : 1,28 Гбайт (88%)
Библиотека кодирования : XviD 73

Аудио
Идентификатор : 1
Формат : AC-3
Формат/Информация : Audio Coding 3
Расширение режима : CM (complete main)
Параметр Endianness формата : Big
Идентификатор кодека : 2000
Продолжительность : 2 ч. 0 м.
Вид битрейта : Постоянный
Битрейт : 192 Кбит/сек
Каналы : 2 канала
Расположение каналов : Front: L R
Частота : 48,0 КГц
Битовая глубина : 16 бит
Метод сжатия : С потерями
Задержка видео : 1 с. 0 мс.
Размер потока : 166 Мбайт (11%)
Выравнивание : Разделение по промежуткам
Продолжительность промежутка : 42 мс. (1,00 видеокадр)
Время предзагрузки промежутка : 500 мс.


picpicpic
Для увеличения картинки щелкните мышкой по превью

Этот торрент недоступен для скачивания без регистрации, однако доступен по публичной magnet-ссылке (источники с публичных трекеров). Перед использованием ссылки прочтите, пожалуйста Пользовательское соглашение, а также как можно дольше оставайтесь на раздаче! Для того, чтобы скачать сам торрент-файл (который видит больше источников), а также для того, чтобы поблагодарить релизера, вам необходимо зарегистрироваться. Если регистрироваться лень - вы можете также попробовать скачать релиз по нашим партнерским ссылкам ниже.

[underverse.su].t46330.torrent
Трекер: Зарегистрирован   [ 17.11.2014 09:25 ]  

Статус: T временная (by Ведьмочка at 17.11.2014 09:25)
Поблагодарили: 5 человек
Тип торрента: публичный - доступные источники с открытых трекеров: 
Размер: 1,45 GB (занимает 1/3 DVDR, для записи нужно 1 болванка DVDR/RW)
 
 
Похожие темы
Форум Тема Автор Торрент Отв. Посл. сооб.
T Зарубежное кино [DVDRip, Low-Res HDRip, и т.д.] Стражи Галактики / Guardians of the Galaxy (Джеймс Ганн) [2014 г., Фантастика,Боевик,Приключения , DVDRip] DUB (RUS) |Чистый звук| viktor.r-79
1 | 0

0 | 2065

147

10.11.2014 11:12

T Зарубежное кино [DVDRip, Low-Res HDRip, и т.д.] Стражи Галактики / Guardians of the Galaxy (Джеймс Ганн / James Gunn) [2014 г., фантастика, боевик, приключения, HDRip) Dub [iTunes] 90ytr90
22 | 0

0 | 1563

54

18.11.2014 18:20

Зарубежное кино [DVDRip, Low-Res HDRip, и т.д.] Стражи Галактики / Guardians of the Galaxy (Джеймс Ганн / James Gunn) [2014 г., фантастика, боевик, приключения, BDRip-AVC] Dub + Original (Eng) + Sub (Rus, Eng) 90ytr90
1 | 0

0 | 449

12

20.11.2014 08:51

Зарубежное кино [DVDRip, Low-Res HDRip, и т.д.] Стражи Галактики / Guardians of the Galaxy (Джеймс Ганн / James Gunn) [2014 г., фантастика, боевик, приключения, BDRip] Dub 90ytr90
8 | 0

0 | 768

35

20.11.2014 09:31

# Зарубежное кино [DVDRip, Low-Res HDRip, и т.д.] Стражи Галактики / Guardians of the Galaxy (Джеймс Ганн / James Gunn) [2014 г., фантастика, боевик, приключения, BDRip-AVC] [IMAX] Dub + Original (Eng) + Subs 90ytr90
3 | 0

0 | 597

17

22.11.2014 14:28

Зарубежное кино [DVDRip, Low-Res HDRip, и т.д.] Стражи Галактики / Guardians of the Galaxy (Джеймс Ганн / James Gunn) [2014 г., фантастика, боевик, приключения, HDRip] [IMAX] Dub 90ytr90
3 | 0

0 | 500

20

22.11.2014 17:27

Зарубежное кино HQ Стражи Галактики / Guardians of the Galaxy (Джеймс Ганн / James Gunn) [2014 г., фантастика, боевик, приключения, BDRip] Rus (Dub) HQ Underverse HQ Underverse
112 | 1

0 | 1568

105

07.12.2014 09:06

Зарубежное кино [HDDVDRip / BDRip / WEB-DL / HDTV 1080/720р] Стражи Галактики / Guardians of the Galaxy (Джеймс Ганн / James Gunn) [2014 г., фантастика, боевик, приключения, BDRip 720p] Dub + Original (Eng) + Comments + Sub (Rus, Eng) 90ytr90
1 | 1

0 | 626

15

20.11.2014 09:15

Зарубежное кино [HDDVDRip / BDRip / WEB-DL / HDTV 1080/720р] Стражи Галактики / Guardians of the Galaxy (Джеймс Ганн / James Gunn) [2014 г., фантастика, боевик, приключения, BDRip 1080p] Dub + Original (Eng) + Comments + Sub (Rus, Eng) 90ytr90
2 | 0

0 | 569

40

20.11.2014 09:21

Зарубежное кино [HDDVDRip / BDRip / WEB-DL / HDTV 1080/720р] Стражи Галактики / Guardians of the Galaxy (Джеймс Ганн / James Gunn) [2014 г., фантастика, боевик, приключения, BDRip 1080p] Dub + Sub (Rus, Eng) 90ytr90
7 | 0

0 | 660

47

20.11.2014 11:00

Nick_mn Пол:Муж

23-Ноя-2014 17:25

Фильм снят в целом нормально, посмотреть хотя бы раз как фантастику и боевик можно, съёмки и графика нормальные. Конечно не шедевр в смысле сюжета и сценария, но он лучше аналогичных фильмов. В фильме есть хорошие приколы... мне например понравилось как руководство спасённой планеты "отблагодарило" Стражей Галактики и их помощников за своё спасение, и за то что они подарили им супер оружие, сразу же глядя на это "хочется" рисковать жизнью и также отказываться от 4 миллиардов предлагаемых другими... :)

Яндекс.Метрика powered by Sphinx


В Н И М А Н И Е
Сайт не распространяет и не хранит электронные версии произведений, а лишь бесплатно и без коммерческой выгоды (не требуя взамен платы,
SMS и т.д.) предоставляет доступ к создаваемому пользователями каталогу ссылок на торрент-файлы, которые содержат только списки хеш-сумм.
Убедительная просьба с жалобами обращаться напрямую к пользователю, разместившему торрент файл.

Вверх