Loading...
Error

Белые волки 2 (1-12 серии из 12) (Александр Бурцев, Дмитрий Сошников) [ 2014 г., Боевик, SatRip]

Статистика раздачи
Размер:  7,29 GB   |    Зарегистрирован:  2 года   |    Скачан:  15 раз

Полного источника не было: 15 часов

Сидов:  0  |  0 KB/s  ]   Личеров:  0  |  0 KB/s  ]

* - сиды/пиры с внешних источников

   
 
Автор Сообщение

nemos Пол:Муж

15-Ноя-2014 20:18

Год выпуска: премьера (РФ) 15 ноября 2014
Жанр: Боевик
Страна: Россия
Режиссер: Александр Бурцев, Дмитрий Сошников
В ролях: Андрей Аверьянов, Татьяна Калих, Денис Бобышев, Артём Бородич, Максим Житник, Александр Ильин (IV), Станислав Боклан, Олег Примогенов, Михаил Жонин, Георгий Пицхелаури, Александр Баширов, Михаил Есьман, Мария Жиганова, Анатолий Зиновенко
Качество видео: SatRip

Продолжительность: 00:50:00 серия
Формат: AVI
Видео: XviD, 720x400, 1800 kbps
Аудио: русский, MP3 2.0, 128 kbps
После ареста Ли в городе появляется таинственный «Хозяин». Он начинает постепенно прибирать к рукам весь бизнес, оставшийся после севшего в тюрьму криминального лидера. Бывший компаньон Ли – Очагиров, во время встречи в Москве раскрывает новому «Хозяину» всю схему криминального бизнеса в городе. По возвращении в город Очагирова убивают.

Код:

E:\Фильмы Раздача-1\Belye.volki.2.SATRip\Belye.volki.2.01.SATRip.avi
   General
      Complete name : E:\Фильмы Раздача-1\Belye.volki.2.SATRip\Belye.volki.2.01.SATRip.avi
      Format : AVI
      Format/Info : Audio Video Interleave
      File size : 662 MiB
      Duration : 47mn 46s
      Overall bit rate : 1 938 Kbps
      Writing application : VirtualDubMod 1.5.10.3 | www.virtualdub-fr.org || (build 2550/release)
      Writing library : VirtualDubMod build 2550/release
   Video #0
      ID : 0
      Format : MPEG-4 Visual
      Format profile : Advanced Simple@L5
      Format settings, BVOP : 2
      Format settings, QPel : No
      Format settings, GMC : No warppoints
      Format settings, Matrix : Default (H.263)
      Codec ID : XVID
      Codec ID/Hint : XviD
      Duration : 47mn 46s
      Bit rate : 1 800 Kbps
      Width : 720 pixels
      Height : 400 pixels
      Display aspect ratio : 16:9
      Frame rate : 25.000 fps
      Color space : YUV
      Chroma subsampling : 4:2:0
      Bit depth : 8 bits
      Scan type : Progressive
      Compression mode : Lossy
      Bits/(Pixel*Frame) : 0.250
      Stream size : 615 MiB (93%)
      Writing library : XviD 1.2.1 (UTC 2008-12-04)
   Audio #1
      ID : 1
      Format : MPEG Audio
      Format version : Version 1
      Format profile : Layer 3
      Mode : Joint stereo
      Mode extension : MS Stereo
      Codec ID : 55
      Codec ID/Hint : MP3
      Duration : 47mn 46s
      Bit rate mode : Constant
      Bit rate : 128 Kbps
      Channel(s) : 2 channels
      Sampling rate : 48.0 KHz
      Compression mode : Lossy
      Stream size : 43.7 MiB (7%)
      Alignment : Aligned on interleaves
      Interleave, duration : 40 ms (1.00 video frame)
      Interleave, preload duration : 504 ms
      Writing library : LAME3.99r
      Encoding settings : -m j -V 4 -q 9 -lowpass 17 -b 128
picpicpicpicpicpicpicpicpicpicpic
Для увеличения картинки щелкните мышкой по превью

Этот торрент недоступен для скачивания без регистрации, однако доступен по публичной magnet-ссылке (источники с публичных трекеров). Перед использованием ссылки прочтите, пожалуйста Пользовательское соглашение, а также как можно дольше оставайтесь на раздаче! Для того, чтобы скачать сам торрент-файл (который видит больше источников), а также для того, чтобы поблагодарить релизера, вам необходимо зарегистрироваться. Если регистрироваться лень - вы можете также попробовать скачать релиз по нашим партнерским ссылкам ниже.

[underverse.su].t46421.torrent
Трекер: Зарегистрирован   [ 20.11.2014 17:24 ]  

Статус: проверено (by nemos at 20.11.2014 17:24)
Поблагодарили: пока никто не поблагодарил...
Тип торрента: публичный - доступные источники с открытых трекеров: 
Размер: 7,29 GB (занимает 1,66 DVDR, для записи нужно 2 болванки DVDR/RW)
 
 
Похожие темы
Форум Тема Автор Торрент Отв. Посл. сооб.
xUSSR сериалы Белые волки / Серии : 1-10 (10) (Игорь Забара, Вячеслав Лавров) [2012 г., боевик, криминальный фильм, SatRip] Чертёнок
0 | 1

0 | 1243

18

03.02.2013 23:36

xUSSR сериалы Белые волки / Серии: 1-10(10) (Игорь Забара, Вячеслав Лавров) [2012., боевик, криминал, IPTVRip] nemos
1 | 0

0 | 926

15

08.03.2013 16:58

xUSSR сериалы Белые волки [01-14 из 14] (Игорь Забара, Вячеслав Лавров) [2012 г., боевик, DVDRip] Чертёнок
13 | 2

0 | 1821

26

23.10.2013 14:12


Яндекс.Метрика powered by Sphinx


В Н И М А Н И Е
Сайт не распространяет и не хранит электронные версии произведений, а лишь бесплатно и без коммерческой выгоды (не требуя взамен платы,
SMS и т.д.) предоставляет доступ к создаваемому пользователями каталогу ссылок на торрент-файлы, которые содержат только списки хеш-сумм.
Убедительная просьба с жалобами обращаться напрямую к пользователю, разместившему торрент файл.

Вверх