Loading...
Error

Анжелика, маркиза ангелов / Angeique, Marquise Des Anges (Ариэль Зейтун) [2013 г., Мелодрама, Приключения, HDRip] Dub (RUS, Лицензия)

Статистика раздачи
Размер:  1,46 GB   |    Зарегистрирован:  2 года   |    Скачан:  8 раз

Полного источника не было: 2 месяца 10 дней

Сидов:  0  |  0 KB/s  ]   Личеров:  0  |  0 KB/s  ]

* - сиды/пиры с внешних источников

   
 
Автор Сообщение

Ведьмочка Пол:Жен

15-Ноя-2014 12:21

Анжелика, маркиза ангелов / Angeique, Marquise Des Anges


Страна: Франция
Год выпуска: 2013
Жанр: Мелодрама, Приключения
Продолжительность: 01:52:35
Режиссёр: Ариэль Зейтун
В ролях: Жерар Ланвен, Мигель Херц-Кестранек, Давид Кросс, Нора Арнезедер, Мэтью Бужена, Юлиан Вайгенд, Райнер Фриб, Флоренс Косте, Томер Сисле, Симон Абкарян
Сюжет фильма:
Франция XVII века. Юную красавицу Анжелику выдают замуж за графа де Пейрака, обладающего огромным состоянием и слывущего «колдуном». Поначалу Анжелика ненавидит мужа, но постепенно начинает понимать, что за суровой внешностью скрывается обаятельным, добрый, чуткий и справедливый мужчина. Между супругами вспыхивает настоящая любовь, но идиллия оказывается недолгой.

Короля Людовика XIV, проездом посетившего замок Де Пейрака, начинает терзать зависть к семейному счастью и богатству своего подданного. Де Пейрак заточен в Бастилию и ждет казни. Но Анжелика готова биться за свою любовь до последнего вздоха. На помощь энергичной и независимой красавице приходит давно влюбленный в нее Николя — предводитель парижских разбойников.


Озвучивание:
  • Дублированный, Русский [Лицензия]

Качество видео: HDRip
Формат: AVI

Видео: XviD, 720x304 (2.35:1), 24.000 fps, ~1396 Кбит/сек
Аудио: AC-3, 448 Кбит/сек, 6 Каналов, 48.0 КГц



Общее
Полное имя : \Anjelika.Markiza.Djavolov.2013.D.HDRip.1.46Gb.avi
Формат : AVI
Формат/Информация : Audio Video Interleave
Размер файла : 1,46 Гбайт
Продолжительность : 1 ч. 52 м.
Общий поток : 1853 Кбит/сек
Программа кодирования : VirtualDubMod 1.5.10.2 (build 2540/release)
Библиотека кодирования : VirtualDubMod build 2540/release

Видео
Идентификатор : 0
Формат : MPEG-4 Visual
Профиль формата : Advanced Simple@L5
Параметр BVOP формата : 2
Параметр QPel формата : Нет
Параметр GMC формата : Без точки перехода
Параметр матрицы формата : Выборочная
Идентификатор кодека : XVID
Идентификатор кодека/Подсказка : XviD
Продолжительность : 1 ч. 52 м.
Битрейт : 1396 Кбит/сек
Ширина : 720 пикселей
Высота : 304 пикселя
Соотношение сторон : 2,35:1
Частота кадров : 24,000 кадра/сек
Цветовое пространство : YUV
Субдискретизация насыщенности : 4:2:0
Битовая глубина : 8 бит
Тип развёртки : Прогрессивная
Метод сжатия : С потерями
Бит/(Пиксели*Кадры) : 0.266
Размер потока : 1,10 Гбайт (75%)
Библиотека кодирования : XviD 1.2.1 (UTC 2008-12-04)

Аудио
Идентификатор : 1
Формат : AC-3
Формат/Информация : Audio Coding 3
Расширение режима : CM (complete main)
Параметр Endianness формата : Big
Идентификатор кодека : 2000
Продолжительность : 1 ч. 52 м.
Вид битрейта : Постоянный
Битрейт : 448 Кбит/сек
Каналы : 6 каналов
Расположение каналов : Front: L C R, Side: L R, LFE
Частота : 48,0 КГц
Битовая глубина : 16 бит
Метод сжатия : С потерями
Размер потока : 361 Мбайт (24%)
Выравнивание : Разделение по промежуткам
Продолжительность промежутка : 42 мс. (1,00 видеокадр)
Время предзагрузки промежутка : 500 мс.


picpicpic
Для увеличения картинки щелкните мышкой по превью

Этот торрент недоступен для скачивания без регистрации, однако доступен по публичной magnet-ссылке (источники с публичных трекеров). Перед использованием ссылки прочтите, пожалуйста Пользовательское соглашение, а также как можно дольше оставайтесь на раздаче! Для того, чтобы скачать сам торрент-файл (который видит больше источников), а также для того, чтобы поблагодарить релизера, вам необходимо зарегистрироваться. Если регистрироваться лень - вы можете также попробовать скачать релиз по нашим партнерским ссылкам ниже.

[underverse.su].t46294.torrent
Трекер: Зарегистрирован   [ 15.11.2014 12:21 ]  

Статус: проверено (by Ведьмочка at 15.11.2014 12:21)
Поблагодарили: пока никто не поблагодарил...
Тип торрента: публичный - доступные источники с открытых трекеров: 
Размер: 1,46 GB (занимает 1/3 DVDR, для записи нужно 1 болванка DVDR/RW)
 
 
Похожие темы
Форум Тема Автор Торрент Отв. Посл. сооб.
Зарубежное кино [DVDRip, Low-Res HDRip, и т.д.] Анжелика, маркиза ангелов / Angelique, marquise des anges (Ариэль Зейтун / Ariel Zeitoun) [2013 г., мелодрама, приключения, DVDRip] Dub 90ytr90
43 | 1

0 | 534

26

26.02.2014 05:59

Зарубежное кино [DVDRip, Low-Res HDRip, и т.д.] Анжелика, маркиза ангелов / Angelique, marquise des anges (Ариэль Зейтун / Ariel Zeitoun) [2013 г., мелодрама, приключения, DVDRip-AVC] Dub 90ytr90
15 | 0

0 | 609

22

26.02.2014 15:09

Зарубежное кино [DVDRip, Low-Res HDRip, и т.д.] Анжелика, маркиза ангелов / Angeique, Marquise Des Anges (Ариэль Зейтун) [2013 г., Мелодрама, Приключения, HDRip] Dub (RUS, Лицензия) + Original (FRA) Ведьмочка
0 | 0

0 | 271

2

15.11.2014 12:10

Зарубежное кино [HDDVDRip / BDRip / WEB-DL / HDTV 1080/720р] Анжелика, маркиза ангелов / Angeique, Marquise Des Anges (Ариэль Зейтун) [2013 г., Мелодрама, Приключения, BDRip 720p] Dub (RUS, Лицензия) + Original (FRA) Ведьмочка
0 | 0

0 | 310

3

15.11.2014 11:42

Зарубежное кино [HDDVDRip / BDRip / WEB-DL / HDTV 1080/720р] Анжелика, маркиза ангелов / Angeique, Marquise Des Anges (Ариэль Зейтун) [2013 г., Мелодрама, Приключения, BDRip 720p] Dub (RUS, Лицензия) + Original (FRA) Ведьмочка
12 | 1

0 | 354

11

15.11.2014 12:52


Яндекс.Метрика powered by Sphinx


В Н И М А Н И Е
Сайт не распространяет и не хранит электронные версии произведений, а лишь бесплатно и без коммерческой выгоды (не требуя взамен платы,
SMS и т.д.) предоставляет доступ к создаваемому пользователями каталогу ссылок на торрент-файлы, которые содержат только списки хеш-сумм.
Убедительная просьба с жалобами обращаться напрямую к пользователю, разместившему торрент файл.

Вверх