Loading...
Error

Поможем расстаться / Schlussmacher (Маттиас Швайгхефер, Торстен Кюнстлер) [2013 г., Комедия, HDRip] DVO (RUS, Диапазон)

Статистика раздачи
Размер:  1,46 GB   |    Зарегистрирован:  2 года   |    Скачан:  14 раз

Полного источника не было: 3 месяца 8 дней

Сидов:  0  |  0 KB/s  ]   Личеров:  0  |  0 KB/s  ]

* - сиды/пиры с внешних источников

   
 
Автор Сообщение

Ведьмочка Пол:Жен

15-Ноя-2014 08:07

Поможем расстаться / Schlussmacher


Страна: Германия
Год выпуска: 2013
Жанр: Комедия
Продолжительность: 01:50:31
Режиссёр: Маттиас Швайгхефер, Торстен Кюнстлер
В ролях: Маттиас Швайгхефер, Саша Александер, Ариана Похон, Мартин Нойхаус, Изабель Шосниг, Бежо Домен, Хайнер Лаутербах, Бернхард Шюц, Амрей Хардт, Надя Уль
Сюжет фильма:
Сотрудник профессионального агентства по расставаниям — Пол, пытается решить проблемы, которые появляются вместе с Тото — бойфрендом его заказчика.

Озвучивание:
  • Любительский, Двухголосный, Русский [Диапазон]

Качество видео: HDRip
Формат: AVI

Видео: XviD, 720x304 (2.35:1), 23.976 fps, ~1685 Кбит/сек
Аудио: AC-3, 192 Кбит/сек, 2 Канала, 48.0 КГц

Rip by:



Общее
Полное имя : \Schlussmacher.2013.HDRip.CINEMANIA.avi
Формат : AVI
Формат/Информация : Audio Video Interleave
Размер файла : 1,46 Гбайт
Продолжительность : 1 ч. 50 м.
Общий поток : 1886 Кбит/сек
Программа кодирования : VirtualDubMod 1.5.10.2 (build 2542/release)
Библиотека кодирования : VirtualDubMod build 2542/release

Видео
Идентификатор : 0
Формат : MPEG-4 Visual
Профиль формата : Advanced Simple@L5
Параметр BVOP формата : 1
Параметр QPel формата : Нет
Параметр GMC формата : Без точки перехода
Параметр матрицы формата : Выборочная
Идентификатор кодека : XVID
Идентификатор кодека/Подсказка : XviD
Продолжительность : 1 ч. 50 м.
Битрейт : 1685 Кбит/сек
Ширина : 720 пикселей
Высота : 304 пикселя
Соотношение сторон : 2,35:1
Частота кадров : 23,976 кадра/сек
Цветовое пространство : YUV
Субдискретизация насыщенности : 4:2:0
Битовая глубина : 8 бит
Тип развёртки : Прогрессивная
Метод сжатия : С потерями
Бит/(Пиксели*Кадры) : 0.321
Размер потока : 1,30 Гбайт (89%)
Библиотека кодирования : XviD 73

Аудио
Идентификатор : 1
Формат : AC-3
Формат/Информация : Audio Coding 3
Расширение режима : CM (complete main)
Параметр Endianness формата : Big
Идентификатор кодека : 2000
Продолжительность : 1 ч. 50 м.
Вид битрейта : Постоянный
Битрейт : 192 Кбит/сек
Каналы : 2 канала
Расположение каналов : Front: L R
Частота : 48,0 КГц
Битовая глубина : 16 бит
Метод сжатия : С потерями
Размер потока : 152 Мбайт (10%)
Выравнивание : Разделение по промежуткам
Продолжительность промежутка : 42 мс. (1,00 видеокадр)
Время предзагрузки промежутка : 500 мс.


picpicpic
Для увеличения картинки щелкните мышкой по превью

Этот торрент недоступен для скачивания без регистрации, однако доступен по публичной magnet-ссылке (источники с публичных трекеров). Перед использованием ссылки прочтите, пожалуйста Пользовательское соглашение, а также как можно дольше оставайтесь на раздаче! Для того, чтобы скачать сам торрент-файл (который видит больше источников), а также для того, чтобы поблагодарить релизера, вам необходимо зарегистрироваться. Если регистрироваться лень - вы можете также попробовать скачать релиз по нашим партнерским ссылкам ниже.

[underverse.su].t46287.torrent
Трекер: Зарегистрирован   [ 15.11.2014 08:07 ]  

Статус: проверено (by Ведьмочка at 15.11.2014 08:07)
Поблагодарили: пока никто не поблагодарил...
Тип торрента: публичный - доступные источники с открытых трекеров: 
Размер: 1,46 GB (занимает 1/3 DVDR, для записи нужно 1 болванка DVDR/RW)
 
 
Похожие темы
Форум Тема Автор Торрент Отв. Посл. сооб.
Зарубежное кино [DVDRip, Low-Res HDRip, и т.д.] Поможем расстаться / Schlussmacher (Маттиас Швайгхефер, Торстен Кюнстлер) [2013 г., комедия, HDRip] VO 90ytr90
59 | 1

0 | 1129

24

02.10.2013 16:05

Зарубежное кино [HDDVDRip / BDRip / WEB-DL / HDTV 1080/720р] Поможем расстаться / Schlussmacher (Маттиас Швайгхефер, Торстен Кюнстлер) [2013 г., Комедия, BDRip 720p] DVO (RUS, Диапазон) + Original (GER) + Subs (RUS, ENG, GER) Ведьмочка
2 | 0

0 | 327

5

15.11.2014 08:17


Яндекс.Метрика powered by Sphinx


В Н И М А Н И Е
Сайт не распространяет и не хранит электронные версии произведений, а лишь бесплатно и без коммерческой выгоды (не требуя взамен платы,
SMS и т.д.) предоставляет доступ к создаваемому пользователями каталогу ссылок на торрент-файлы, которые содержат только списки хеш-сумм.
Убедительная просьба с жалобами обращаться напрямую к пользователю, разместившему торрент файл.

Вверх