Loading...
Error

Парни из Джерси / Jersey Boys (Клинт Иствуд) [2014 г., Драма, Биография, Музыка, HDRip] MVO (RUS)

Статистика раздачи
Размер:  2,05 GB   |    Зарегистрирован:  2 года   |    Скачан:  4 раза

Полного источника не было: 1 день 23 часа

Сидов:  0  |  0 KB/s  ]   Личеров:  0  |  0 KB/s  ]

* - сиды/пиры с внешних источников

   
 
Автор Сообщение

Ведьмочка Пол:Жен

15-Ноя-2014 07:02

Парни из Джерси / Jersey Boys
«Everybody remembers it how they need to»


Страна: США
Год выпуска: 2014
Жанр: Драма, Биография, Музыка
Продолжительность: 02:14:17
Режиссёр: Клинт Иствуд
В ролях: Джон Ллойд Янг, Эрих Берген, Майкл Ломенда, Винсент Пьяцца, Кристофер Уокен, Стив Ширрипа, Кэтрин Нардуччи, Лу Волп, Джонни Канниццаро, Майкл Патрик МакГилл
Сюжет фильма:
Фильм является биографией группы The Four Seasons. Он рассказывает об их развитии, о пережитых личных столкновениях и трудных временах, и окончательном триумфе группы друзей, чья музыка стала символом целого поколения.

Озвучивание:
  • Профессиональный, Многоголосный, Русский [Официальный звук]

Качество видео: HDRip
Формат: AVI

Видео: XviD, 720x304 (2.35:1), 23.976 fps, ~1979 Кбит/сек
Аудио: AC-3, 192 Кбит/сек, 2 Канала, 48.0 КГц



Общее
Полное имя :\Parni.iz.Dzhersi.2014.P.HDRip2100.avi
Формат : AVI
Формат/Информация : Audio Video Interleave
Профиль формата : OpenDML
Размер файла : 2,05 Гбайт
Продолжительность : 2 ч. 14 м.
Общий поток : 2183 Кбит/сек
Программа кодирования : VirtualDubMod 1.5.10.2 (build 2540/release)
Библиотека кодирования : VirtualDubMod build 2540/release

Видео
Идентификатор : 0
Формат : MPEG-4 Visual
Профиль формата : Advanced Simple@L5
Параметр BVOP формата : 2
Параметр QPel формата : Нет
Параметр GMC формата : Без точки перехода
Параметр матрицы формата : Default (MPEG)
Идентификатор кодека : XVID
Идентификатор кодека/Подсказка : XviD
Продолжительность : 2 ч. 14 м.
Битрейт : 1979 Кбит/сек
Ширина : 720 пикселей
Высота : 304 пикселя
Соотношение сторон : 2,35:1
Частота кадров : 23,976 кадра/сек
Цветовое пространство : YUV
Субдискретизация насыщенности : 4:2:0
Битовая глубина : 8 бит
Тип развёртки : Прогрессивная
Метод сжатия : С потерями
Бит/(Пиксели*Кадры) : 0.377
Размер потока : 1,86 Гбайт (91%)
Библиотека кодирования : XviD 1.2.1 (UTC 2008-12-04)

Аудио
Идентификатор : 1
Формат : AC-3
Формат/Информация : Audio Coding 3
Расширение режима : CM (complete main)
Параметр Endianness формата : Big
Идентификатор кодека : 2000
Продолжительность : 2 ч. 14 м.
Вид битрейта : Постоянный
Битрейт : 192 Кбит/сек
Каналы : 2 канала
Расположение каналов : Front: L R
Частота : 48,0 КГц
Битовая глубина : 16 бит
Метод сжатия : С потерями
Размер потока : 184 Мбайт (9%)
Выравнивание : Разделение по промежуткам
Продолжительность промежутка : 42 мс. (1,00 видеокадр)
Время предзагрузки промежутка : 500 мс.


picpicpic
Для увеличения картинки щелкните мышкой по превью

Этот торрент недоступен для скачивания без регистрации, однако доступен по публичной magnet-ссылке (источники с публичных трекеров). Перед использованием ссылки прочтите, пожалуйста Пользовательское соглашение, а также как можно дольше оставайтесь на раздаче! Для того, чтобы скачать сам торрент-файл (который видит больше источников), а также для того, чтобы поблагодарить релизера, вам необходимо зарегистрироваться. Если регистрироваться лень - вы можете также попробовать скачать релиз по нашим партнерским ссылкам ниже.

[underverse.su].t46284.torrent
Трекер: Зарегистрирован   [ 15.11.2014 07:03 ]  

Статус: проверено (by Ведьмочка at 15.11.2014 07:03)
Поблагодарили: пока никто не поблагодарил...
Тип торрента: публичный - доступные источники с открытых трекеров: 
Размер: 2,05 GB (занимает 0,47 DVDR, для записи нужно 1 болванка DVDR/RW)
 
 
Похожие темы
Форум Тема Автор Торрент Отв. Посл. сооб.
Зарубежное кино [DVDRip, Low-Res HDRip, и т.д.] Парни из Джерси / Jersey Boys (Клинт Иствуд) [2014 г., Драма, Биография, Музыка, HDRip] MVO (RUS) Ведьмочка
0 | 0

0 | 359

13

15.11.2014 07:13

Зарубежное кино [DVDRip, Low-Res HDRip, и т.д.] Парни из Джерси / Jersey Boys (Клинт Иствуд / Clint Eastwood) [2014 г., драма, биография, музыка, BDRip-AVC] MVO + Original (Eng) + Sub (Eng) 90ytr90
18 | 2

0 | 304

1

20.11.2014 21:19

Зарубежное кино [HDDVDRip / BDRip / WEB-DL / HDTV 1080/720р] Парни из Джерси / Jersey Boys (Клинт Иствуд / Clint Eastwood) [2014 г., драма, биография, музыка, BDRip-AVC] MVO + Original (Eng) + Subs 90ytr90
5 | 0

0 | 384

3

20.11.2014 21:24


Яндекс.Метрика powered by Sphinx


В Н И М А Н И Е
Сайт не распространяет и не хранит электронные версии произведений, а лишь бесплатно и без коммерческой выгоды (не требуя взамен платы,
SMS и т.д.) предоставляет доступ к создаваемому пользователями каталогу ссылок на торрент-файлы, которые содержат только списки хеш-сумм.
Убедительная просьба с жалобами обращаться напрямую к пользователю, разместившему торрент файл.

Вверх