Loading...
Error

Ты не ты / You're Not You (Джордж С. Волф) [2014 г., Драма, WEB-DLRip] VO (RUS, datynet)

Статистика раздачи
Размер:  1,46 GB   |    Зарегистрирован:  2 года   |    Скачан:  5 раз

Полного источника не было: 25 дней

Сидов:  0  |  0 KB/s  ]   Личеров:  0  |  0 KB/s  ]

* - сиды/пиры с внешних источников

   
 
Автор Сообщение

Ведьмочка Пол:Жен

14-Ноя-2014 22:18

Ты не ты / You're Not You
«Life is measured in moments that leave you breathless»


Страна: США
Год выпуска: 2014
Жанр: Драма
Продолжительность: 01:42:36
Режиссёр: Джордж С. Волф
В ролях: Хилари Суэнк, Эмми Россум, Джош Дюамель, Стефани Беатриз, Джейсон Риттер, Джулиан МакМэхон, Эли Лартер, Андреа Сэвадж, Джералд Дауни, Майк Дойл
Сюжет фильма:
Драма сосредоточена на неизлечимо больной женщине и беспечной молодой девушке, которая становится её опекуном.

Озвучивание:
  • Любительский, Одноголосный, Русский [datynet]

Качество видео: WEB-DLRip
Формат: AVI

Видео: XviD, 720x400 (16:9), 23.976 fps, ~1642 Кбит/сек
Аудио: AC-3, 384 Кбит/сек, 6 Каналов, 48.0 КГц

Rip by:



Общее
Полное имя : \You're.Not.You.2014.WEB-DLRip.CINEMANIA.avi
Формат : AVI
Формат/Информация : Audio Video Interleave
Размер файла : 1,46 Гбайт
Продолжительность : 1 ч. 42 м.
Общий поток : 2035 Кбит/сек
Программа кодирования : VirtualDubMod 1.5.10.2 (build 2542/release)
Библиотека кодирования : VirtualDubMod build 2542/release

Видео
Идентификатор : 0
Формат : MPEG-4 Visual
Профиль формата : Advanced Simple@L5
Параметр BVOP формата : 2
Параметр QPel формата : Нет
Параметр GMC формата : Без точки перехода
Параметр матрицы формата : Default (H.263)
Режим смешивания : Сжатый битовый поток
Идентификатор кодека : XVID
Идентификатор кодека/Подсказка : XviD
Продолжительность : 1 ч. 42 м.
Битрейт : 1642 Кбит/сек
Ширина : 720 пикселей
Высота : 400 пикселей
Соотношение сторон : 16:9
Частота кадров : 23,976 кадра/сек
Цветовое пространство : YUV
Субдискретизация насыщенности : 4:2:0
Битовая глубина : 8 бит
Тип развёртки : Прогрессивная
Метод сжатия : С потерями
Бит/(Пиксели*Кадры) : 0.238
Размер потока : 1,18 Гбайт (81%)
Библиотека кодирования : XviD 65

Аудио
Идентификатор : 1
Формат : AC-3
Формат/Информация : Audio Coding 3
Расширение режима : CM (complete main)
Параметр Endianness формата : Big
Идентификатор кодека : 2000
Продолжительность : 1 ч. 42 м.
Вид битрейта : Постоянный
Битрейт : 384 Кбит/сек
Каналы : 6 каналов
Расположение каналов : Front: L C R, Side: L R, LFE
Частота : 48,0 КГц
Битовая глубина : 16 бит
Метод сжатия : С потерями
Размер потока : 282 Мбайт (19%)
Выравнивание : Разделение по промежуткам
Продолжительность промежутка : 42 мс. (1,00 видеокадр)
Время предзагрузки промежутка : 500 мс.


picpicpic
Для увеличения картинки щелкните мышкой по превью

Этот торрент недоступен для скачивания без регистрации, однако доступен по публичной magnet-ссылке (источники с публичных трекеров). Перед использованием ссылки прочтите, пожалуйста Пользовательское соглашение, а также как можно дольше оставайтесь на раздаче! Для того, чтобы скачать сам торрент-файл (который видит больше источников), а также для того, чтобы поблагодарить релизера, вам необходимо зарегистрироваться. Если регистрироваться лень - вы можете также попробовать скачать релиз по нашим партнерским ссылкам ниже.

[underverse.su].t46280.torrent
Трекер: Зарегистрирован   [ 14.11.2014 22:18 ]  

Статус: проверено (by Ведьмочка at 14.11.2014 22:18)
Поблагодарили: 2 человека
Тип торрента: публичный - доступные источники с открытых трекеров: 
Размер: 1,46 GB (занимает 1/3 DVDR, для записи нужно 1 болванка DVDR/RW)
 
 
Похожие темы
Форум Тема Автор Торрент Отв. Посл. сооб.
Зарубежное кино [DVDRip, Low-Res HDRip, и т.д.] Ты не ты / You're Not You (Джордж С. Волф) [2014 г., драма, WEB-DLRip] VO [datynet] Паукан
35 | 0

0 | 258

3

14.11.2014 16:55

Зарубежное кино [DVDRip, Low-Res HDRip, и т.д.] Ты не ты / You're Not You (Джордж С. Волф / George C. Wolfe) [2014 г., драма, WEB-DLRip] MVO 90ytr90
36 | 0

0 | 223

5

09.02.2015 10:56

Зарубежное кино [DVDRip, Low-Res HDRip, и т.д.] Ты не ты / You're Not You (Джордж С. Волф / George C. Wolfe) [2014 г., драма, WEB-DLRip] MVO 90ytr90
0 | 0

0 | 386

4

16.02.2015 18:36

Зарубежное кино [DVDRip, Low-Res HDRip, и т.д.] Ты не ты / You're Not You (Джордж С. Волф) [2014 г., драма, HDRip] MVO Паукан
2 | 0

0 | 497

17

16.04.2015 16:34

Зарубежное кино [HDDVDRip / BDRip / WEB-DL / HDTV 1080/720р] Ты не ты / You're Not You (Джордж С. Волф) [2014 г., Драма, WEB-DL 720p] VO (RUS, datynet) + Original (ENG) + Subs (ENG) Ведьмочка
8 | 1

0 | 312

7

14.11.2014 22:13


Яндекс.Метрика powered by Sphinx


В Н И М А Н И Е
Сайт не распространяет и не хранит электронные версии произведений, а лишь бесплатно и без коммерческой выгоды (не требуя взамен платы,
SMS и т.д.) предоставляет доступ к создаваемому пользователями каталогу ссылок на торрент-файлы, которые содержат только списки хеш-сумм.
Убедительная просьба с жалобами обращаться напрямую к пользователю, разместившему торрент файл.

Вверх