Loading...
Error

Волчье солнце / Сезон 1 / Серии 1-12 из 12 (Сергей Гинзбург) [2014 г., драма, приключения, SatRip]

Статистика раздачи
Размер:  6,91 GB   |    Зарегистрирован:  2 года   |    Скачан:  21 раз
Сидов:  2  |  242 KB/s  ]   Личеров:  0  |  0 KB/s  ]

* - сиды/пиры с внешних источников

   
 
Автор Сообщение

nemos Пол:Муж

14-Ноя-2014 17:01

Волчье солнце


Год выпуска: премьера (мир) 10 ноября 2014
Жанр: драма, приключения
Страна: Россия
Режиссер: Сергей Гинзбург
В ролях: Гела Месхи, Александр Робак, Владимир Ильин, Андрей Мерзликин, Екатерина Климова, Ян Фрыч, Павел Трубинер, Софья Каштанова, Ольга Красько, Максим Лагашкин, Игорь Хрипунов, Сергей Годин, Александр Суцковер, Анатолий Голуб, Олег Ткачёв, Иван Мацкевич, Сергей Власов (IV), Сергей Ковальский (II), Эва Шикульска, Магдалена Ружаньская, Кшиштоф Бохенек, Игорь Арташонов, Сергей Шарифуллин, Анна Банщикова, Игорь Пазыч, Максим Белозор, Алексей Юцкевич
Сюжет фильма:
1924 год. Молодому чекисту Михаилу Останину удается раздобыть сверхважную информацию: через два месяца на территорию СССР начнется вторжение белоэмигрантских войск, подготовленное британской разведкой. Ударят в одновременно в нескольких местах - в Средней Азии, Бессарабии, Прибалтике. Но основной удар планируется нанести с территории Польши. Руководство ОГПУ ставит перед Останиным почти невыполнимую задачу: предотвратить нападение, став доверенным лицом генерала Ромовского - командующего операцией и будущего Верховного правителя захваченных территорий в Советской Белоруссии и Украине. Вступив в банду контрабандистов, Останин проникает на территорию Польши, где сосредоточены войска Ромовского. Он действует под именем своего друга детства Януша Галецкого - поляка, белого офицера, погибшего в боях с красными на юге России. Пройдя многочисленные проверки, Останину-Галецкому удается стать сначала завербованным агентом начальника контрразведки Ромовского полковника Сегунды, а затем – офицером для особых поручений у самого Ромовского…Кроме авантюрно-приключенческого сюжета, в этой истории существует и романтическая линия - неожиданно для себя герой влюбится и вынужден будет выбирать между любовью и исполнением долга.


Качество видео: SatRip

Продолжительность: 00:51:25 (Серия)
Формат: AVI
Видео: XviD, 704x368 , 1 400 kbps
Аудио: русский, MP3 2.0, 192 kbps

Код:

E:\Фильмы Раздача-1\Волчье солнце (2014)\Волчье солнце.(12.seriya.END).2014.XviD.SATRip.by.simka.avi
   General
      Complete name : E:\Фильмы Раздача-1\Волчье солнце (2014)\Волчье солнце.(12.seriya.END).2014.XviD.SATRip.by.simka.avi
      Format : AVI
      Format/Info : Audio Video Interleave
      File size : 589 MiB
      Duration : 51mn 25s
      Overall bit rate : 1 602 Kbps
      Writing application : VirtualDubModRus 1.5.10.2 (build 2542/release)
      Writing library : VirtualDubMod build 2542/release
   Video #0
      ID : 0
      Format : MPEG-4 Visual
      Format profile : Advanced Simple@L5
      Format settings, BVOP : 1
      Format settings, QPel : No
      Format settings, GMC : No warppoints
      Format settings, Matrix : Default (MPEG)
      Codec ID : XVID
      Codec ID/Hint : XviD
      Duration : 51mn 25s
      Bit rate : 1 400 Kbps
      Width : 704 pixels
      Height : 368 pixels
      Display aspect ratio : 1.913
      Frame rate : 25.000 fps
      Color space : YUV
      Chroma subsampling : 4:2:0
      Bit depth : 8 bits
      Scan type : Progressive
      Compression mode : Lossy
      Bits/(Pixel*Frame) : 0.216
      Stream size : 515 MiB (87%)
      Writing library : XviD 1.2.1 (UTC 2008-12-04)
   Audio #1
      ID : 1
      Format : MPEG Audio
      Format version : Version 1
      Format profile : Layer 3
      Mode : Joint stereo
      Codec ID : 55
      Codec ID/Hint : MP3
      Duration : 51mn 25s
      Bit rate mode : Constant
      Bit rate : 192 Kbps
      Channel(s) : 2 channels
      Sampling rate : 48.0 KHz
      Compression mode : Lossy
      Stream size : 70.6 MiB (12%)
      Alignment : Aligned on interleaves
      Interleave, duration : 40 ms (1.00 video frame)
      Interleave, preload duration : 504 ms
      Writing library : LAME3.99r
      Encoding settings : -m j -V 4 -q 2 -lowpass 18.6 -b 192
picpicpicpicpicpicpicpicpicpicpicpicpicpicpic
Для увеличения картинки щелкните мышкой по превью

Этот торрент недоступен для скачивания без регистрации, однако доступен по публичной magnet-ссылке (источники с публичных трекеров). Перед использованием ссылки прочтите, пожалуйста Пользовательское соглашение, а также как можно дольше оставайтесь на раздаче! Для того, чтобы скачать сам торрент-файл (который видит больше источников), а также для того, чтобы поблагодарить релизера, вам необходимо зарегистрироваться. Если регистрироваться лень - вы можете также попробовать скачать релиз по нашим партнерским ссылкам ниже.

[underverse.su].t46275.torrent
Трекер: Зарегистрирован   [ 14.11.2014 17:01 ]  

Статус: проверено (by nemos at 14.11.2014 17:01)
Поблагодарили: 2 человека
Тип торрента: публичный - доступные источники с открытых трекеров: 
Размер: 6,91 GB (занимает 1,58 DVDR, для записи нужно 2 болванки DVDR/RW)
 
 

Яндекс.Метрика powered by Sphinx


В Н И М А Н И Е
Сайт не распространяет и не хранит электронные версии произведений, а лишь бесплатно и без коммерческой выгоды (не требуя взамен платы,
SMS и т.д.) предоставляет доступ к создаваемому пользователями каталогу ссылок на торрент-файлы, которые содержат только списки хеш-сумм.
Убедительная просьба с жалобами обращаться напрямую к пользователю, разместившему торрент файл.

Вверх